MEGA NEWS Получи личный уникальный адрес сайта и защити себя от блокировок. Внимание количество ограничено!!!

iTunes

1+1

iTunes

мы

iTunes

1

iTunes

Чернобыль

iTunes

Ральф против интернета

Лицензия

ПШазам

Лицензия

Игра престолов

Лицензия

30
pack

ВАЖНО

!!Акция!!

Alien_RageХит недели

RePack

Resident Evil 21

ИГРА 18+

pack

RePack

Metro:Exodus

!!Акция!!

Alien_Rage

RePack

fifa19

RePack

Assassins Creed: Odyssey

RePack

NEED FOR SPEED™ PAYBACK

3 сезон

9 сезон

Бесстыжие 9 сезон

Все сериалы

все сериалы на PB.wtf

RePack

FAR CRY 5
Ребята, катастрофически не хватает 1900р. для оплаты серверов за АВГУСТ (всвязи с блокировками трафик упал в 3 раза), 1-2р., выручайте.
  

Обитель зла: Вендетта / Resident Evil: Vendetta (Таканори Цудзимото) [2017, мультфильм, ужасы, фантастика, боевик, детектив, приключения, BDRip от R.G. Resident] Дубляж - [Лицензия / iTunes] piratbit.org

Обитель зла: Вендетта через торрент piratbit.org

Раздают: 1 [ 0 KB/s ]
Размер: 746 MB | Добавлен: 2 года 3 мес. назад | Торрент скачан:106 раз
Скачать  

20-06-2017 16:51 Обитель зла: Вендетта Скачать торрент  

Обитель зла: Вендетта / Resident Evil: Vendetta

Год выпуска: 2017
Страна: Япония
Жанр: мультфильм, ужасы, фантастика, боевик, детектив, приключения

Продолжительность: 01:37:14
Перевод: Дубляж - [Лицензия / iTunes]
Режиссер: Таканори Цудзимото
В ролях:

Кевин Дорман (Chris Redfield, озвучка), Мэттью Мерсер (Leon S. Kennedy, озвучка), Эрин Кехилл (Rebecca Chambers, озвучка), Кари Уолгрен (Nadia, озвучка), Ариф С. Кинчен (D.C.), Арни Пантойя (Damian, озвучка), Джон ДеМита (Glenn Arias, озвучка), Кристина Валенсуела (Maria Gomez, озвучка), Фред Татаскьор (Diego Gomez, озвучка), Александр Полински (Patricio, озвучка), Орион Акаба (Soldier, озвучка), Дэрин Де Пол (Zombie, озвучка)
Описание:
Сотрудник организации по борьбе с биотерроризмом B.S.A.A. Крис Редфилд проникает в таинственный особняк, который, согласно информации, является базой контрабандистов оружием. В ходе расследования Крис сталкивается с Гленом Ариасом, преступником объявленным в международный розыск, и становится свидетелем странной картины, в результате которой упускает Ариаса.
Рейтинг:

MPAA: R - Лицам до 17 лет обязательно присутствие взрослого
Качество: BDRip
Формат: AVI
Видео: XviD, 688x384 (16:9), 939 kbps, 23,976 fps, 0,148 bpp
Аудио: MP3 / 2.0 / 48 kHz / 128 kbps /

Общее
Полное имя : E:\Resident.Evil.Vendetta.2017.BDRip.745.R.G.Resident.avi
Формат : AVI
Формат/Информация : Audio Video Interleave
Размер файла : 746 Мбайт
Продолжительность : 1 ч. 37 м.
Общий поток : 1073 Кбит/сек
Программа кодирования : VirtualDubModRus 1.5.10.2 (build 2542/release)
Библиотека кодирования : VirtualDubMod build 2542/release

Видео
Идентификатор : 0
Формат : MPEG-4 Visual
Профиль формата : Advanced Simple@L5
Параметр BVOP формата : 2
Параметр QPel формата : Нет
Параметр GMC формата : Без точки перехода
Параметр матрицы формата : Выборочная
Идентификатор кодека : XVID
Идентификатор кодека/Подсказка : XviD
Продолжительность : 1 ч. 37 м.
Битрейт : 939 Кбит/сек
Ширина : 688 пикселей
Высота : 384 пикселя
Соотношение сторон : 16:9
Частота кадров : 23,976 (24000/1001) кадра/сек
Цветовое пространство : YUV
Субдискретизация насыщенности : 4:2:0
Битовая глубина : 8 бит
Тип развёртки : Прогрессивная
Метод сжатия : С потерями
Бит/(Пиксели*Кадры) : 0.148
Размер потока : 653 Мбайт (88%)
Библиотека кодирования : XviD 73

Аудио
Идентификатор : 1
Формат : MPEG Audio
Версия формата : Version 1
Профиль формата : Layer 3
Идентификатор кодека : 55
Идентификатор кодека/Подсказка : MP3
Продолжительность : 1 ч. 37 м.
Вид битрейта : Постоянный
Битрейт : 128 Кбит/сек
Каналы : 2 канала
Частота : 48,0 КГц
Метод сжатия : С потерями
Размер потока : 89,0 Мбайт (12%)
Выравнивание : Соединение по промежуткам
Продолжительность промежутка : 167 мс. (4,00 видеокадра)
Время предзагрузки промежутка : 216 мс.
Библиотека кодирования : LAME3.99r
Настройки программы : -m s -V 4 -q 3 -lowpass 17 -b 128
piratbit.org



Скачать Обитель зла: Вендетта через торрент http://i77.fastpic.ru/big/2016/0417/a7/808a646271c761f7c7d87df3d366b3a7.png Скачать фильм Обитель зла: Вендетта через торрент бесплантно в хорошем качестве Описание: Сотрудник организации по борьбе с биотерроризмом B.S.A.A. Крис Редфилд проникает в таинственный особняк, который, согласно ... 9.4 10 15
× Info от релизера! Торрент перезалит, замена на BDRip.
Info! Золотая раздача, скачанное не засчитывается.
Торрент: Зарегистрирован [2017-07-04 21:04] · скачан: 106 раз
Статус: √ проверено
Размер: 746 MB
Как cкачать? Как скачать Обитель зла: Вендетта через торрент | qTorrent

% Раздел Тема Автор DL S | L
Ultra HD (UHD: 2K, 4K, 8K) [ 38.99 GB ] Обитель зла: Вендетта / Resident Evil: Vendetta [2017 мультфильм UHD BDRemux 2160p] DUB [] [Dolby Vision TV] sheker187 Скачать
1 | 0
Зарубежные Мультфильмы (BDRip 1080p, 720p, Blu-ray, BD-Remux) [ 20.38 GB ] Обитель зла: Вендетта / Resident Evil: Vendetta [2017 Мультфильм BDRemux 1080p] bober100 Скачать
2 | 0
Иностранные мультфильмы [ 2.06 GB ] Обитель зла: Вендетта / Resident Evil: Vendetta [2017 мультфильм BDRip ] - ExKinoRay Enigma2010 Скачать
2 | 0
Иностранные мультфильмы [ 1.46 GB ] Обитель зла: Вендетта / Resident Evil: Vendetta [2017 мультфильм BDRip] - [] Twi7ter Скачать
1 | 0
Иностранные мультфильмы [ 1.42 GB ] Обитель зла: Вендетта / Resident Evil: Vendetta [2017 BDRip-AVC] bober100 Скачать
1 | 0
Зарубежные Мультфильмы (BDRip 1080p, 720p, Blu-ray, BD-Remux) [ 10.75 GB ] Обитель зла: Вендетта / Resident Evil: Vendetta [2017 Мультфильм BDRip 1080p] bober100 Скачать
1 | 0
Иностранные мультфильмы [ 1.93 GB ] Обитель зла: Вендетта / Resident Evil: Vendetta [2017 мультфильм BDRip-AVC ] - ExKinoRay Enigma2010 Скачать
1 | 0


>> Регистрируемся здесь <<






Отзывы и комментарии о схеме читаем и пишем здесь: ---> Отзывы и комментарии о схеме

Новые благодарочки в телеграм довольных пользователей:
скриншот   скриншот   скриншот   скриншот   скриншот
    Дорогой пользователь! Огромная просьба, поблагодарите релизера, оцените раздачу и оставьте свои комментарий, если Вы скачали Обитель зла: Вендетта через торрент бесплатно! Внесите свою лепту в развитие PiratBit!
    Комментировать посты могут только пользователи прошедшие не сложную регистрацию
    Показать сообщения:    

    Обитель зла: Вендетта через торрент
    Скачать бесплатно Обитель зла: Вендетта
    Обитель зла: Вендетта скачать торрент
    Обитель зла: Вендетта смотреть онлайн
    Cкачать фильм Обитель зла: Вендетта бесплатно
    Обитель зла: Вендетта скачать торрент в хорошем качестве
    Обитель зла: Вендетта смотреть онлайн бесплатно в хорошем качестве


    Вы не можете начинать темы
    Вы не можете отвечать на сообщения
    Вы не можете редактировать свои сообщения
    Вы не можете удалять свои сообщения
    Вы не можете голосовать в опросах
    Вы не можете прикреплять файлы к сообщениям
    Вы можете скачивать файлы