MEGA NEWS Получи личный уникальный адрес сайта и защити себя от блокировок. Внимание количество ограничено!!!

iTunes

1+1

iTunes

мы

iTunes

1

iTunes

Чернобыль

iTunes

Ральф против интернета

Лицензия

ПШазам

Лицензия

Игра престолов

Лицензия

30
pack

ВАЖНО

!!Акция!!

Alien_RageХит недели

RePack

Resident Evil 21

ИГРА 18+

pack

RePack

Metro:Exodus

!!Акция!!

Alien_Rage

RePack

fifa19

RePack

Assassins Creed: Odyssey

RePack

NEED FOR SPEED™ PAYBACK

3 сезон

9 сезон

Бесстыжие 9 сезон

Все сериалы

все сериалы на PB.wtf

RePack

FAR CRY 5
Ребята, катастрофически не хватает 1900р. для оплаты серверов за АВГУСТ (всвязи с блокировками трафик упал в 3 раза), 1-2р., выручайте.
  

Джек Ричер 2: Никогда не возвращайся / Jack Reacher: Never Go Back (Эдвард Цвик) [2016, боевик, BDRip - HEVC 1080p 12 bit 60 FPS] Дубляж - [Лицензия] piratbit.org

Джек Ричер 2: Никогда не возвращайся через торрент piratbit.org

Раздают: 2 [ 0 KB/s ]
Размер: 3.01 GB | Добавлен: 3 мес. 12 д. назад | Торрент скачан:117 раз
Скачать  

05-07-2019 16:50 Джек Ричер 2: Никогда не возвращайся Скачать торрент  

Джек Ричер 2: Никогда не возвращайся / Jack Reacher: Never Go Back
««Не уступай, не сдавайся, не возвращайся»»

Год выпуска: 2016
Страна: Китай,
Жанр: боевик,
Продолжительность: 01:58:08
Перевод: Дубляж - [Лицензия]
Субтитры: русские (Full [iTunes])
Режиссер: Эдвард Цвик
В ролях:

Том Круз (Jack Reacher), Коби Смолдерс (Turner), Элдис Ходж (Espin), Даника Ярош (Samantha), Патрик Хьюсингер (The Hunter), Холт Маккэллани (Col. Morgan), Роберт Неппер (Gen. Harkness), Джудд Лорманд (Local Deputy), Кристофер Берри (Onlooker at Diner), Хантер Бурк (Onlooker at Diner), Джейсон Дуглас (Sheriff), Лизет Хатчингс (Smuggled Woman)
Описание:
Экс-военный Джек Ричер приезжает в Вашингтон, чтобы впервые встретиться с майором Сьюзен Тернер, которая возглавила его бывшее подразделение и не раз выручала его в непростых ситуациях. По странному стечению обстоятельств буквально накануне его визита майора арестовывают по обвинению в измене... Ричеру, уверенному в невиновности Сьюзен, предстоит освободить ее и раскрыть заговор, ниточки которого тянутся на самый верх. Стремясь докопаться до правды, он также делает поразительное открытие, способное раз и навсегда изменить его жизнь...
Мировая премьера: 12 октября 2016

Качество: BDRip 1080p Rip by DD2D3
Формат: MKV
Видео: V_MPEGH/ISO/HEVC, 1920x804 (2.40:1), 3001 kbps, 59,940 fps, 0,032 bpp
Аудио: русский / AC3 / 5.1 / 48 kHz / 640 kbps / ||
Навигация по главам: есть


Общее
Уникальный идентификатор : 214308245398327268013692315274763573201 (0xA13A44476148EC8AA0361E282F7017D1)
Полное имя : D:\Джек Ричер 2 Никогда не возвращайся - Jack Reacher Never Go Back (2016) BDRip - HEVC 1080p 12 bit 60 FPS.mkv
Формат : Matroska
Версия формата : Version 4
Размер файла : 3,01 Гбайт
Продолжительность : 1 ч. 58 м.
Общий поток : 3646 Кбит/сек
Название фильма : Rip by DD2D3
Дата кодирования : UTC 2019-07-05 16:13:50
Программа кодирования : mkvmerge v10.0.0 ('To Drown In You') 32bit
Библиотека кодирования : libebml v1.3.4 + libmatroska v1.4.5
Attachments : poster

Видео
Идентификатор : 1
Формат : HEVC
Формат/Информация : High Efficiency Video Coding
Профиль формата : @L4.1@Main
Идентификатор кодека : V_MPEGH/ISO/HEVC
Продолжительность : 1 ч. 58 м.
Битрейт : 3002 Кбит/сек
Ширина : 1920 пикселей
Высота : 804 пикселя
Соотношение сторон : 2,40:1
Режим частоты кадров : Постоянный
Частота кадров : 59,940 (60000/1001) кадров/сек
Цветовое пространство : YUV
Субдискретизация насыщенности : 4:2:0
Битовая глубина : 12 бит
Бит/(Пиксели*Кадры) : 0.032
Размер потока : 2,48 Гбайт (82%)
Библиотека кодирования : x265 2.3+33-0b7d54dbb71a87a0:[Windows][MSVC 1800][64 bit] 12bit: KG7x [x265.ru]
Настройки программы : cpuid=1173503 / frame-threads=2 / numa-pools=4 / wpp / no-pmode / no-pme / no-psnr / no-ssim / log-level=2 / input-csp=1 / input-res=1920x804 / interlace=0 / total-frames=424908 / level-idc=41 / high-tier=1 / uhd-bd=0 / ref=3 / no-allow-non-conformance / no-repeat-headers / annexb / no-aud / no-hrd / info / hash=0 / no-temporal-layers / open-gop / min-keyint=25 / keyint=250 / bframes=4 / b-adapt=2 / b-pyramid / bframe-bias=0 / rc-lookahead=20 / lookahead-slices=5 / scenecut=40 / no-intra-refresh / ctu=64 / min-cu-size=8 / no-rect / no-amp / max-tu-size=32 / tu-inter-depth=1 / tu-intra-depth=1 / limit-tu=0 / rdoq-level=0 / dynamic-rd=0.00 / no-ssim-rd / signhide / no-tskip / nr-intra=0 / nr-inter=0 / no-constrained-intra / strong-intra-smoothing / max-merge=2 / limit-refs=3 / no-limit-modes / me=1 / subme=2 / merange=57 / temporal-mvp / weightp / no-weightb / no-analyze-src-pics / deblock=0:0 / no-sao / no-sao-non-deblock / rd=3 / no-early-skip / no-rskip / no-fast-intra / no-tskip-fast / no-cu-lossless / no-b-intra / rdpenalty=0 / psy-rd=4.00 / psy-rdoq=0.00 / no-rd-refine / analysis-mode=0 / no-lossless / cbqpoffs=0 / crqpoffs=0 / rc=abr / bitrate=3000 / qcomp=0.60 / qpstep=1 / stats-write=0 / stats-read=2 / cplxblur=20.0 / qblur=0.5 / ipratio=1.10 / pbratio=1.00 / aq-mode=0 / aq-strength=0.00 / no-cutree / zone-count=0 / no-strict-cbr / qg-size=64 / rc-grain / qpmax=69 / qpmin=0 / sar=1 / overscan=0 / videoformat=5 / range=0 / colorprim=2 / transfer=2 / colormatrix=2 / chromaloc=0 / display-window=0 / max-cll=0,0 / min-luma=0 / max-luma=4095 / log2-max-poc-lsb=8 / vui-timing-info / vui-hrd-info / slices=1 / opt-qp-pps / opt-ref-list-length-pps / no-multi-pass-opt-rps / scenecut-bias=0.05 / no-opt-cu-delta-qp / no-aq-motion / no-hdr / no-hdr-opt / refine-level=5 / no-limit-sao
Default : Да
Forced : Нет

Аудио
Идентификатор : 2
Формат : AC-3
Формат/Информация : Audio Coding 3
Коммерческое название : Dolby Digital
Идентификатор кодека : A_AC3
Продолжительность : 1 ч. 58 м.
Вид битрейта : Постоянный
Битрейт : 640 Кбит/сек
Каналы : 6 каналов
Channel layout : L R C LFE Ls Rs
Частота : 48,0 КГц
Частота кадров : 31,250 кадров/сек (1536 SPF)
Битовая глубина : 16 бит
Метод сжатия : С потерями
Размер потока : 541 Мбайт (18%)
Заголовок : Dub [License]
Язык : Russian
ServiceKind/String : Complete Main
Default : Да
Forced : Нет

Текст
Идентификатор : 3
Формат : UTF-8
Идентификатор кодека : S_TEXT/UTF8
Идентификатор кодека/Информация : UTF-8 Plain Text
Продолжительность : 1 ч. 52 м.
Битрейт : 79 бит/сек
ElementCount : 1277
Размер потока : 65,5 Кбайт (0%)
Заголовок : Full [iTunes]
Язык : Russian
Default : Нет
Forced : Нет

Меню
00:00:00.000 : en:00:00:00.000
00:07:00.629 : en:00:07:00.629
00:15:19.877 : en:00:15:19.877
00:20:33.858 : en:00:20:33.858
00:29:04.576 : en:00:29:04.576
00:34:35.740 : en:00:34:35.740
00:42:40.141 : en:00:42:40.141
00:49:28.007 : en:00:49:28.007
00:58:44.563 : en:00:58:44.563
01:03:10.161 : en:01:03:10.161
01:09:35.755 : en:01:09:35.755
01:15:05.334 : en:01:15:05.334
01:21:59.665 : en:01:21:59.665
01:27:07.222 : en:01:27:07.222
01:34:14.065 : en:01:34:14.065
01:46:44.857 : en:01:46:44.857
01:53:30.846 : en:01:53:30.846
скриншот  скриншот  скриншот  скриншот  скриншот  

© Оформление by DD2D3 piratbit.org



Скачать Джек Ричер 2: Никогда не возвращайся через торрент https://funkyimg.com/i/2Vg6o.png Скачать фильм Джек Ричер 2: Никогда не возвращайся через торрент бесплантно в хорошем качестве Описание: Экс-военный Джек Ричер приезжает в Вашингтон, чтобы впервые встретиться с майором Сьюзен Тернер, которая возглавила его бывшее ... 10 10 9
Торрент: Зарегистрирован [2019-07-05 16:50] · скачан: 117 раз
Статус: √ проверено
Размер: 3.01 GB
Как cкачать? Как скачать Джек Ричер 2: Никогда не возвращайся через торрент | qTorrent

% Раздел Тема Автор DL S | L
Ultra HD (UHD: 2K, 4K, 8K) — видео сверхвысокой чёткости [ 58.42 GB ] Джек Ричер 2: Никогда не возвращайся / Jack Reacher: Never Go Back [2016 UHD BDRemux 2160p] DUB + 4xAVO [] sheker187 Скачать
1 | 0
Фильмы (Blu-ray, BD-Remux, HDDVD) [ 27.06 GB ] Джек Ричер 2: Никогда не возвращайся / Jack Reacher: Never Go Back [2016 BD Remux 1080p] [] DUB+AVO bober100 Скачать
1 | 0
Фильмы 2016 [DVDrip, WEB-DLRip, HDrip] (DUB, MVO) [ 4.02 GB ] Джек Ричер 2: Никогда не возвращайся / Jack Reacher: Never Go Back [2016 BDRip-AVC] - [] 4xAVO - ExKinoRay Enigma2010 Скачать
2 | 0
Фильмы [HD 720p, 1080p] (Хороший звук DUB, MVO) [ 5.76 GB ] Джек Ричер 2: Никогда не возвращайся / Jack Reacher: Never Go Back [2016 BDRip 720p] potroks Скачать
2 | 0
Ultra HD (UHD: 2K, 4K, 8K) — видео сверхвысокой чёткости [ 45.87 GB ] Джек Ричер 2: Никогда не возвращайся / Jack Reacher: Never Go Back [2016 UHD WEBRip 2160p] - [] sheker187 Скачать
1 | 0
Фильмы (Blu-ray, BD-Remux, HDDVD) [ 23.52 GB ] Джек Ричер 2: Никогда не возвращайся / Jack Reacher: Never Go Back [2016 экранизация BDRemux 1080p] / Russian Mafia Скачать
1 | 0
Фильмы 2016 [DVDrip, WEB-DLRip, HDrip] (DUB, MVO) [ 1.41 GB ] Джек Ричер 2: Никогда не возвращайся / Jack Reacher: Never Go Back [2016 BDRip] - Twi7ter Скачать
3 | 0


>> Регистрируемся здесь <<






Отзывы и комментарии о схеме читаем и пишем здесь: ---> Отзывы и комментарии о схеме

Новые благодарочки в телеграм довольных пользователей:
скриншот   скриншот   скриншот   скриншот   скриншот

06-07-2019 07:11 Джек Ричер 2: Никогда не возвращайся Скачать торрент  

О да! Классная киношка! Забираю!
Что следующее? На заказ твариш?piratbit.org



06-07-2019 07:22 Джек Ричер 2: Никогда не возвращайся Скачать торрент  

Пока перекур, в планах самый пьяный округ. А какой ты фильм хочешь?piratbit.org



    Дорогой пользователь! Огромная просьба, поблагодарите релизера, оцените раздачу и оставьте свои комментарий, если Вы скачали Джек Ричер 2: Никогда не возвращайся через торрент бесплатно! Внесите свою лепту в развитие PiratBit!
    Комментировать посты могут только пользователи прошедшие не сложную регистрацию
    Показать сообщения:    

    Джек Ричер 2: Никогда не возвращайся через торрент
    Скачать бесплатно Джек Ричер 2: Никогда не возвращайся
    Джек Ричер 2: Никогда не возвращайся скачать торрент
    Джек Ричер 2: Никогда не возвращайся смотреть онлайн
    Cкачать фильм Джек Ричер 2: Никогда не возвращайся бесплатно
    Джек Ричер 2: Никогда не возвращайся скачать торрент в хорошем качестве
    Джек Ричер 2: Никогда не возвращайся смотреть онлайн бесплатно в хорошем качестве


    Вы не можете начинать темы
    Вы не можете отвечать на сообщения
    Вы не можете редактировать свои сообщения
    Вы не можете удалять свои сообщения
    Вы не можете голосовать в опросах
    Вы не можете прикреплять файлы к сообщениям
    Вы можете скачивать файлы