Доктор Стрэндж

Лицензия

Добыча

MVO

Дом дракона

1 сезон

Тор

Лицензия

Мэверик

Лицензия

Там, где раки поют

MVO

Властелин колец

1 сезон

Ultimate

pack

Рекомендуем

30

Repack

ВАЖНО

ВАЖНО

Ghostwire

RePack

jed

RePack

nioh2

RePack

RDR2

RePack

NEED FOR SPEED™ PAYBACK

RePack

скачать торрент

Кинопоиск HD

Острые козырьки 6 сезон

6 сезон

FAR CRY 6

RePack

скачать торрент

Лицензия

скачать торрент

MVO

1

1 сезон

скачать торрент

1 сезон

скачать торрент

Лицензия

  

Небо (Игорь Копылов) [2021, Биография, драма, боевик, WEB-DL 1080p] [iTunes]

Небо через торрент piratbit.org

Раздают: 4 [ 37 KB/s ]
Размер: 4.93 GB | Добавлен: 8 мес. назад | Торрент скачан:449 раз
Смотреть онлайн Небо | Скачать   

18-11-2021 16:55 Небо Скачать торрент  

Небо
Год выпуска: 2021
Страна: Россия
Выпущено: Триикс Медиа
Жанр: Биография, драма, боевик
Продолжительность: 02:11:23
Перевод: Не требуется | iTunes
Субтитры: отсутствуют

Режиссер: Игорь Копылов



В ролях: Игорь Петренко, Иван Батарев, Сергей Губанов, Мария Миронова, Илья Носков, Николай Козак, Дмитрий Власкин, Сергей Жарков, Дмитрий Блохин, Григорий Некрасов

Описание: Подполковник Сошников и капитан Муравьев — два разных характера, две разные судьбы, которым суждено будет сойтись на военной базе Хмеймим. Во время боевого вылета самолет Сошникова был сбит турецким истребителем. Это событие освещали все мировые СМИ, а за ходом спасательной операции следила вся Россия.

Качество: WEB-DL 1080p
Формат: MKV

Видео: MPEG-4 AVC, 5000 Kb/s, 1920x800
Аудио: 48 kHz, AC3 Dolby Digital, 3/2 (L, C, R, l, r) + LFE ch, ~384 Kbps
скриншот  скриншот  скриншот  скриншот  

Complete name : Nebo.2021.WEB-DL.1080p.ELEKTRI4KA.UNIONGANG.mkv
Format : Matroska
Format version : Version 4
File size : 4.93 GiB
Duration : 2 h 11 min
Overall bit rate : 5 375 kb/s
Movie name : Nebo.2021.WEB-DL.1080p.ELEKTRI4KA.UNIONGANG.
Encoded date : UTC 2022-01-10 19:56:57
Writing application : mkvmerge v8.3.0 ('Over the Horizon') 32bit
Writing library : libebml v1.3.1 + libmatroska v1.4.2

Video
ID : 1
Format : AVC
Format/Info : Advanced Video Codec
Format profile : High@L4
Format settings : CABAC / 3 Ref Frames
Format settings, CABAC : Yes
Format settings, Reference frames : 3 frames
Codec ID : V_MPEG4/ISO/AVC
Duration : 2 h 11 min
Bit rate : 5 000 kb/s
Width : 1 920 pixels
Height : 800 pixels
Display aspect ratio : 2.40:1
Frame rate mode : Constant
Frame rate : 24.000 FPS
Color space : YUV
Chroma subsampling : 4:2:0
Bit depth : 8 bits
Scan type : Progressive
Bits/(Pixel*Frame) : 0.136
Stream size : 4.58 GiB (93%)
Writing library : x264 core 161 r3048 b86ae3c
Encoding settings : cabac=1 / ref=4 / deblock=1:1:1 / analyse=0x3:0x133 / me=umh / subme=9 / psy=1 / psy_rd=0.40:1.00 / mixed_ref=1 / me_range=24 / chroma_me=1 / trellis=0 / 8x8dct=1 / cqm=0 / deadzone=21,11 / fast_pskip=1 / chroma_qp_offset=-2 / threads=25 / lookahead_threads=2 / sliced_threads=0 / nr=0 / decimate=1 / interlaced=0 / bluray_compat=0 / constrained_intra=0 / bframes=8 / b_pyramid=1 / b_adapt=1 / b_bias=0 / direct=3 / weightb=1 / open_gop=0 / weightp=2 / keyint=72 / keyint_min=37 / scenecut=0 / intra_refresh=0 / rc_lookahead=30 / rc=2pass / mbtree=1 / bitrate=5000 / ratetol=1.0 / qcomp=0.80 / qpmin=1 / qpmax=69 / qpstep=4 / cplxblur=20.0 / qblur=0.5 / vbv_maxrate=7500 / vbv_bufsize=10000 / nal_hrd=none / filler=0 / ip_ratio=1.40 / aq=1:1.00
Default : Yes
Forced : No
Color range : Limited
Color primaries : BT.709
Transfer characteristics : BT.709
Matrix coefficients : BT.709

Audio
ID : 2
Format : AC-3
Format/Info : Audio Coding 3
Commercial name : Dolby Digital
Codec ID : A_AC3
Duration : 2 h 11 min
Bit rate mode : Constant
Bit rate : 384 kb/s
Channel(s) : 6 channels
Channel layout : L R C LFE Ls Rs
Sampling rate : 48.0 kHz
Frame rate : 31.250 FPS (1536 SPF)
Compression mode : Lossy
Stream size : 361 MiB (7%)
Title : Original (iTunes)
Language : Russian
Service kind : Complete Main
Default : Yes
Forced : Yes

Menu
00:00:00.000 : en:Глава 1
00:09:21.083 : en:Глава 2
00:18:26.833 : en:Глава 3
00:26:48.958 : en:Глава 4
00:34:53.874 : en:Глава 5
00:42:58.332 : en:Глава 6
00:51:51.957 : en:Глава 7
01:00:01.998 : en:Глава 8
01:08:03.998 : en:Глава 9
01:17:15.748 : en:Глава 10
01:25:49.581 : en:Глава 11
01:34:47.831 : en:Глава 12
01:44:37.956 : en:Глава 13
01:52:55.956 : en:Глава 14
02:01:45.497 : en:Глава 15




Скачать Небо через торрент https://i4-imageban-ru.translate.goog/out/2021/11/18/839c5014e1c8f7b7f6f36aeb11c0266b.jpg Скачать, смотреть онлайн Небо бесплантно в хорошем качестве Описание: Подполковник Сошников и капитан Муравьев — два разных характера, две разные судьбы, которым суждено будет сойтись на военной базе ... 9.5 10 36
Info! Золотая раздача, скачанное не засчитывается.
Торрент: Зарегистрирован [2022-01-11 19:05] · скачан: 449 раз
Статус: √ проверено
Размер: 4.93 GB
Как cкачать? Как скачать Небо через торрент | UTorrent

% Раздел Тема Автор DL S | L
Наши новые фильмы 2020 - 2022 [ 2.23 GB ] Небо | iTunes | DLRip-AVC Lithuania Скачать
2 | 0
Наши новые фильмы 2020 - 2022 [ 2.18 GB ] Небо | iTunes | DLRip-AVC bober100 Скачать
1 | 0
Наши фильмы (HD, WEB-DL 720p, 1080p) [ 3.28 GB ] Небо | iTunes | 720p bober100 Скачать
4 | 0
Наши новые фильмы 2020 - 2022 [ 1.46 GB ] Небо | iTunes | DLRip bober100 Скачать
1 | 0
Наши новые фильмы 2020 - 2022 [ 2.18 GB ] Небо | iTunes | DLRip bober100 Скачать
1 | 0



Последний раз редактировалось: bober100 (2022-01-11 19:05), всего редактировалось 2 раз(а)

28-11-2019 20:33  

Отключить вcю реклaмy на сайте

19-11-2021 08:49 Небо Скачать торрент  

Опять?



19-11-2021 12:49 Небо Скачать торрент  

БОГАТЫРЬ писал(а):

Опять?

не, ну в этот раз все вполне прилично. правда, политических штампов выше крыши - крым наш, америкашки казлы, турки дегроды, сирийцы лучшие друзья человека, наши парни красавчики и ваще орлы. этой картине побольше бы реализма и поменьше пафоса. думаю, все было бы куда хуже, если б сняли не по реальной истории реальных летчиков, вот бы там сценаристы развернулись во всю красу (в смысле, уронили б в своем лизоблюдстве рейтинг не хуже злосчастного "крыма"). понимаю, фильм вроде как патриотично-семейный, для просмотра за праздничным столом там, или в кинотеатре. но как иногда хочется жести типа побега из таркова - у нас такого кино действительно мало



20-11-2021 13:37 Небо Скачать торрент  

БОГАТЫРЬ писал(а):

Опять?

Хороший фильм , можно рекомендовать к просмотру



20-11-2021 16:29 Небо Скачать торрент  

Спасибо. Люблю такие фильмы, надо глянуть. )



22-11-2021 08:33 Небо Скачать торрент  

tamburetko писал(а):

БОГАТЫРЬ писал(а):

Опять?

не, ну в этот раз все вполне прилично. правда, политических штампов выше крыши - крым наш, америкашки казлы, турки дегроды, сирийцы лучшие друзья человека, наши парни красавчики и ваще орлы. этой картине побольше бы реализма и поменьше пафоса. думаю, все было бы куда хуже, если б сняли не по реальной истории реальных летчиков, вот бы там сценаристы развернулись во всю красу (в смысле, уронили б в своем лизоблюдстве рейтинг не хуже злосчастного "крыма"). понимаю, фильм вроде как патриотично-семейный, для просмотра за праздничным столом там, или в кинотеатре. но как иногда хочется жести типа побега из таркова - у нас такого кино действительно мало

Глянул, поддержу тебя.
Хотя бы смотрибельно.
Да и посмотреть решил, т.к. рекламу не видел.



12-01-2022 21:41 Небо Скачать торрент  

Краткое содержание- одни наёмники завалили другого наёмника..... как жаль....



18-01-2022 08:53 Небо Скачать торрент  

посмотрел.нуу ,разок можно глянуть впринципи.играют актёры плохо.



    Дорогой пользователь! Огромная просьба, поблагодарите релизера, оцените раздачу и оставьте свои комментарий, если Вы скачали Небо через торрент бесплатно!!
    Комментировать посты могут только пользователи прошедшие не сложную регистрацию
    Показать сообщения:    


    Небо через торрент
    Скачать бесплатно Небо
    Небо скачать торрент
    Небо смотреть онлайн
    Cкачать фильм Небо бесплатно
    Небо скачать торрент в хорошем качестве
    Небо смотреть онлайн бесплатно в хорошем качестве
    Вы не можете начинать темы
    Вы не можете отвечать на сообщения
    Вы не можете редактировать свои сообщения
    Вы не можете удалять свои сообщения
    Вы не можете голосовать в опросах
    Вы не можете прикреплять файлы к сообщениям
    Вы можете скачивать файлы