Доктор Стрэндж

Лицензия

Добыча

MVO

Дом дракона

1 сезон

Тор

Лицензия

Мэверик

Лицензия

Там, где раки поют

MVO

Властелин колец

1 сезон

Ultimate

pack

Рекомендуем

30

Repack

ВАЖНО

ВАЖНО

Ghostwire

RePack

jed

RePack

nioh2

RePack

RDR2

RePack

NEED FOR SPEED™ PAYBACK

RePack

скачать торрент

Кинопоиск HD

Острые козырьки 6 сезон

6 сезон

FAR CRY 6

RePack

скачать торрент

Лицензия

скачать торрент

MVO

1

1 сезон

скачать торрент

1 сезон

скачать торрент

Лицензия

  

Мне плевать, кто вы / Сезон: 1 / Серии: 1-15 из 15 (Оксана Мафагел, Елизавета Аранова) [2021, Комедия, мелодрама, SATRip]

Мне плевать, кто вы через торрент piratbit.org

Размер: 4.86 GB | Добавлен: 8 мес. назад | Торрент скачан:42 раза
Смотреть онлайн Мне плевать, кто вы | Скачать   

10-01-2022 12:40 Мне плевать, кто вы Скачать торрент  

Мне плевать, кто вы
Год выпуска: 2021
Страна: Россия
Студия: 1-2-3 Production
Жанр: Комедия, мелодрама
Продолжительность: ~ 00:25:00
Перевод: Не требуется
Субтитры: отсутствуют

Режиссер: Оксана Мафагел, Елизавета Аранова



В ролях: Денис Власенко, Варвара Феофанова, Евгения Дмитриева, Анна Шепелева, Виктор Логинов, Валерия Репина, Егор Морозов, Мария Баева, Сергей Грузинов, Роман Евдокимов, Светлана Саягова, Дина Губайдуллина, Евгений Терентьев, Евдокия Германова, Никита Тарасов, Александр Рапопорт

Описание: Сюжет сериала стартует в кабинете семейного психолога, куда на приём пришли тинейджер Женя и его мама Ирина Владимировна - между ними явно не всё гладко, и Женя то и дело срывается со словами: «Мама, какого хрена?!» Он - уже взрослый, но совсем не самостоятельный, да ещё и мама никак не может отпустить его в свободное плавание. Чтобы решить проблему гиперопеки и наладить отношения в семье, психолог предлагает разъехаться по разным домам. Так Женя узнаёт значение слова «сепарироваться» и оказывается хозяином «квартирки с секретами»: в одной комнате живёт он, а вторая – сдаётся туристам. Каждая серия подкидывает новый комедийный сюжет, когда к Жене подселяются разные жильцы со своими странностями. Ещё главный герой знакомится с соседкой Дашей, которая помогает, часто против своей воли, справиться с кучей проблем: от неудач в личной жизни до принятия своей внешности, от профессиональных провалов до философских вопросов. «Мне плевать, кто вы» расскажет о том, как можно справиться со своими страхами и комплексами с помощью юмора, друзей и любви.

Качество: SATRip
Формат: AVI

Видео: 720x400 (16:9), 25.000 FPS, XviD, 1668 Kbps, 0.23 bit/pixel
Аудио: MP3, 48.0 KHz, 2 ch, 192 kbps
скриншот  скриншот  скриншот  скриншот  скриншот  

General
Complete name : \Downloads\Mne.plevat.kto.vy.S01.XviD.SATRip.25Kuzmich\Mne.plevat.kto.vy.s01.e01.XviD.SATRip.25Kuzmich.avi
Format : AVI
Format/Info : Audio Video Interleave
File size : 319 MiB
Duration : 23 min 52 s
Overall bit rate : 1 870 kb/s
Writing application : VirtualDubMod 1.5.10.3 | www.virtualdub-fr.org || (build 2550/release)
Writing library : VirtualDubMod build 2550/release
Video #0
ID : 0
Format : MPEG-4 Visual
Format profile : Advanced Simple@L5
Format settings : BVOP1
Format settings, BVOP : 1
Format settings, QPel : No
Format settings, GMC : No warppoints
Format settings, Matrix : Default (MPEG)
Codec ID : XVID
Codec ID/Hint : XviD
Duration : 23 min 52 s
Bit rate : 1 668 kb/s
Width : 720 pixels
Height : 400 pixels
Display aspect ratio : 16:9
Frame rate : 25.000 FPS
Color space : YUV
Chroma subsampling : 4:2:0
Bit depth : 8 bits
Scan type : Progressive
Compression mode : Lossy
Bits/(Pixel*Frame) : 0.232
Stream size : 285 MiB (89%)
Writing library : XviD 73
Audio #1
ID : 1
Format : MPEG Audio
Format version : Version 1
Format profile : Layer 3
Format settings : Joint stereo / MS Stereo
Codec ID : 55
Codec ID/Hint : MP3
Duration : 23 min 52 s
Bit rate mode : Constant
Bit rate : 192 kb/s
Channel(s) : 2 channels
Sampling rate : 48.0 kHz
Frame rate : 41.667 FPS (1152 SPF)
Compression mode : Lossy
Stream size : 32.8 MiB (10%)
Alignment : Aligned on interleaves
Interleave, duration : 40 ms (1.00 video frame)
Interleave, preload duration : 504 ms
Writing library : LAME3.99r
Encoding settings : -m j -V 4 -q 2 -lowpass 18.6 -b 192

Внимание! Раздача ведётся путём добавления новых серий; при каждом добавлении создаётся новый торрент.
Чтобы начать докачку новой серии, пользователям необходимо сделать следующее:
1. Остановить скачивание;
2. Удалить старый торрент у себя из клиента (старые серии удалять не надо);
3. Скачать новый торрент и запустить его у себя в клиенте вместо старого, при этом указать клиенту путь в старую папку куда и должно происходить скачивание новых серий. Ваш клиент при этом должен произвести хеширование (проверку) старой папки и будет докачивать только те серии, которых у вас ещё нет. Старые серии при этом не удаляются, а продолжают раздаваться! Eсли вы уже удалили старые серии, то предотвратить повторную закачку старых серий можно, отжав галочку в соответствующих местах при запуске нового торрента.




Скачать Мне плевать, кто вы через торрент https://d.radikal.ru/d11/2201/55/7300dcc82171.jpg Скачать, смотреть онлайн Мне плевать, кто вы бесплантно в хорошем качестве Описание: Сюжет сериала стартует в кабинете семейного психолога, куда на приём пришли тинейджер Женя и его мама Ирина Владимировна - между ... 9.3 10 12
Торрент: Зарегистрирован [2022-01-27 15:41] · скачан: 42 раз
Статус: √ проверено
Размер: 4.86 GB
Как cкачать? Как скачать Мне плевать, кто вы через торрент | UTorrent

% Раздел Тема Автор DL S | L
Сериалы ТНТ [ 4.39 GB ] Мне плевать, кто вы / Сезон: 1 / Серии: 1-15 из 15 | | WEBRip-AVC bober100 Скачать
2 | 0
Сериалы ТНТ [ 4.65 GB ] Мне плевать, кто вы / Сезон: 1 / Серии: 1-15 из 15 | | WEBRip bober100 Скачать
2 | 0
Сериалы ТНТ [ 11.34 GB ] Мне плевать, кто вы / Сезон: 1 / Серии: 1-15 из 15 | | 1080p bober100 Скачать
2 | 0

28-11-2019 20:33  

Отключить вcю реклaмy на сайте

    Дорогой пользователь! Огромная просьба, поблагодарите релизера, оцените раздачу и оставьте свои комментарий, если Вы скачали Мне плевать, кто вы через торрент бесплатно!!
    Комментировать посты могут только пользователи прошедшие не сложную регистрацию
    Показать сообщения:    


    Мне плевать, кто вы через торрент
    Скачать бесплатно Мне плевать, кто вы
    Мне плевать, кто вы скачать торрент
    Мне плевать, кто вы смотреть онлайн
    Cкачать фильм Мне плевать, кто вы бесплатно
    Мне плевать, кто вы скачать торрент в хорошем качестве
    Мне плевать, кто вы смотреть онлайн бесплатно в хорошем качестве
    Вы не можете начинать темы
    Вы не можете отвечать на сообщения
    Вы не можете редактировать свои сообщения
    Вы не можете удалять свои сообщения
    Вы не можете голосовать в опросах
    Вы не можете прикреплять файлы к сообщениям
    Вы можете скачивать файлы