Всегда рабочее зеркало без VPN и Proxy просто перед .vidak.icu напиши любое слово или цифру, Пример http://hxx4.vidak.icu

MVO

MVO

1 сезон

1

1 сезон

iTunes

1 сезон

13

1 сезон

Deluxe

pack

Рекомендуем

Repack

30

ВАЖНО

RePack

MK11

RePack

jed

RePack

fifa19

RePack

RDR2

RePack

NEED FOR SPEED™ PAYBACK

Кинопоиск HD

6 сезон

 Острые козырьки 6 сезон

Все сериалы

все сериалы на PB.wtf

RePack

FAR CRY 5
  
Magnet ссылка

Флешбэк / Memory (Мартин Кэмпбелл) [2022, Боевик, триллер, BDRip 1080p] DUB [Велес] +MVO [TVShows] piratbit.org

Флешбэк через торрент piratbit.org

Раздают: 12 [ 276 KB/s ]
Размер: 9.55 GB | Добавлен: 1 мес. 11 д. назад | Торрент скачан:174 раза
Смотреть онлайн Флешбэк | Скачать    Ребята, помогите собрать деньги на оплату серверов!!!

21-05-2022 17:29 Флешбэк Скачать торрент  

Флешбэк
Memory

Год выпуска: 2022
Страна: США
Выпущено: Arthur Sarkissian Productions, Black Bear Pictures, Saville Productions, Welle Entertainment
Жанр: Боевик, триллер
Продолжительность: 01:54:04
Перевод(ы):
#1: Дублированный | Велес
#2: Профессиональный многоголосый | TVShows
Субтитры: Английские

Режиссер: Мартин Кэмпбелл

rating

В ролях: Лиам Нисон, Гай Пирс, Тадж Атвал, Арольд Торрес, Рэй Фиарон, Моника Беллуччи, Миа Санчес, Даниэль Де Бург, Натали Андерсон, Ребекка Калдер, Скот Уильямс, Дуглас Рао, Атанас Сребрев, Ли Бордман, Стелла Стокер

Описание: Не выполнив заказ серьезной криминальной организации, киллер с болезнью Альцгеймера понимает, что теперь охота открыта на него самого. «Флешбэк» — ремейк бельгийского триллера 2003 года «Синдром Альцгеймера».

Качество: BDRip 1080p
Формат: MKV

Видео: MPEG-4 AVC, 1920x804, 10.8 Mbit/s, 23.976 fps
Аудио #01: 48 kHz, AC3, 5.1, 384 Kbps | Дублированный | Велес | RUS |
Аудио #02: 48 kHz, AC3, 2.0, 192 Kbps | Профессиональный многоголосый | TVShows | RUS |
Аудио #03: 48 kHz, AC3, 5.1, 640 Kbps | Оригинал | ENG |
скриншот  скриншот  скриншот  скриншот  скриншот  скриншот  

General
Unique ID : 64693181271684664262503168337652523361 (0x30AB7418A23C2DB07F540A1BAF58A161)
Complete name : D:Video1Memory.2022.BDRip.1080p.seleZen.mkv
Format : Matroska
Format version : Version 4
File size : 9.55 GiB
Duration : 1 h 54 min
Overall bit rate : 12.0 Mb/s
Movie name : Memory 2022 from seleZen
Encoded date : UTC 2022-06-26 12:35:29
Writing application : mkvmerge v59.0.0 ('Shining Star') 64-bit
Writing library : libebml v1.4.2 + libmatroska v1.6.4

Video
ID : 1
Format : AVC
Format/Info : Advanced Video Codec
Format profile : High@L4.1
Format settings : CABAC / 5 Ref Frames
Format settings, CABAC : Yes
Format settings, Reference : 5 frames
Codec ID : V_MPEG4/ISO/AVC
Duration : 1 h 54 min
Bit rate : 10.8 Mb/s
Width : 1 920 pixels
Height : 804 pixels
Display aspect ratio : 2.40:1
Frame rate mode : Constant
Frame rate : 23.976 (24000/1001) FPS
Color space : YUV
Chroma subsampling : 4:2:0
Bit depth : 8 bits
Scan type : Progressive
Bits/(Pixel*Frame) : 0.291
Stream size : 8.57 GiB (90%)
Title : MTeam
Writing library : x264 core 157 r2938 2b00a84 TnP@MTeam Mod
Encoding settings : cabac=1 / ref=5 / deblock=1:-3:-3 / analyse=0x3:0x133 / me=umh / subme=10 / psy=1 / psy_rd=1.05:0.00 / mixed_ref=1 / me_range=32 / chroma_me=1 / trellis=2 / 8x8dct=1 / cqm=0 / deadzone=21,11 / fast_pskip=0 / chroma_qp_offset=-2 / threads=12 / lookahead_threads=2 / sliced_threads=0 / nr=0 / decimate=0 / interlaced=0 / bluray_compat=0 / constrained_intra=0 / bframes=8 / b_pyramid=2 / b_adapt=2 / b_bias=0 / direct=3 / weightb=1 / open_gop=0 / weightp=2 / keyint=250 / keyint_min=24 / scenecut=40 / intra_refresh=0 / rc_lookahead=250 / rc=crf / mbtree=0 / crf=16.8 / qcomp=0.60 / qpmin=0 / qpmax=69 / qpstep=4 / vbv_maxrate=62500 / vbv_bufsize=78125 / crf_max=0.0 / nal_hrd=none / filler=0 / ip_ratio=1.30 / pb_ratio=1.20 / aq=3:0.80
Language : English
Default : Yes
Forced : No
Color range : Limited
Color primaries : BT.709
Matrix coefficients : BT.709

Audio #1
ID : 2
Format : AC-3
Format/Info : Audio Coding 3
Commercial name : Dolby Digital
Codec ID : A_AC3
Duration : 1 h 54 min
Bit rate mode : Constant
Bit rate : 384 kb/s
Channel(s) : 6 channels
Channel layout : L R C LFE Ls Rs
Sampling rate : 48.0 kHz
Frame rate : 31.250 FPS (1536 SPF)
Compression mode : Lossy
Stream size : 313 MiB (3%)
Title : Dub [Veles]
Language : Russian
Service kind : Complete Main
Default : Yes
Forced : Yes

Audio #2
ID : 3
Format : AC-3
Format/Info : Audio Coding 3
Commercial name : Dolby Digital
Codec ID : A_AC3
Duration : 1 h 54 min
Bit rate mode : Constant
Bit rate : 192 kb/s
Channel(s) : 2 channels
Channel layout : L R
Sampling rate : 48.0 kHz
Frame rate : 31.250 FPS (1536 SPF)
Compression mode : Lossy
Stream size : 157 MiB (2%)
Title : MVO [TVShows]
Language : Russian
Service kind : Complete Main
Default : No
Forced : No

Audio #3
ID : 4
Format : AC-3
Format/Info : Audio Coding 3
Commercial name : Dolby Digital
Codec ID : A_AC3
Duration : 1 h 54 min
Bit rate mode : Constant
Bit rate : 640 kb/s
Channel(s) : 6 channels
Channel layout : L R C LFE Ls Rs
Sampling rate : 48.0 kHz
Frame rate : 31.250 FPS (1536 SPF)
Compression mode : Lossy
Stream size : 522 MiB (5%)
Title : Original
Language : English
Service kind : Complete Main
Default : No
Forced : No

Text #1
ID : 5
Format : UTF-8
Codec ID : S_TEXT/UTF8
Codec ID/Info : UTF-8 Plain Text
Duration : 1 h 41 min
Bit rate : 51 b/s
Count of elements : 1307
Stream size : 37.9 KiB (0%)
Title : Full
Language : English
Default : No
Forced : No

Text #2
ID : 6
Format : UTF-8
Codec ID : S_TEXT/UTF8
Codec ID/Info : UTF-8 Plain Text
Duration : 1 h 52 min
Bit rate : 56 b/s
Count of elements : 1800
Stream size : 46.4 KiB (0%)
Title : SDH
Language : English
Default : No
Forced : No

Menu
00:00:00.000 : Chapter 01
00:04:31.188 : Chapter 02
00:10:13.696 : Chapter 03
00:16:39.916 : Chapter 04
00:21:34.126 : Chapter 05
00:26:45.062 : Chapter 06
00:33:06.026 : Chapter 07
00:41:49.632 : Chapter 08
00:47:43.486 : Chapter 09
00:54:00.404 : Chapter 10
00:58:39.516 : Chapter 11
01:05:04.025 : Chapter 12
01:10:49.162 : Chapter 13
01:14:59.620 : Chapter 14
01:19:26.470 : Chapter 15
01:25:38.258 : Chapter 16
01:29:55.473 : Chapter 17
01:35:35.355 : Chapter 18
01:39:58.993 : Chapter 19
01:46:33.053 : Chapter 20

piratbit.org



Скачать Флешбэк через торрент https://i7.imageban.ru/out/2022/07/03/fd37bf0ab45645c7e6fc31bded36bc0c.png Скачать, смотреть онлайн Флешбэк бесплантно в хорошем качестве Описание: Не выполнив заказ серьезной криминальной организации, киллер с болезнью Альцгеймера понимает, что теперь охота открыта на него ... 9.4 10 37
Торрент: Зарегистрирован [2022-06-26 13:32] · скачан: 174 раз
Статус: √ проверено
Размер: 9.55 GB
Как cкачать? Как скачать Флешбэк через торрент | UTorrent

% Раздел Тема Автор DL S | L
Фильмы 2022 [DVDrip, WEB-DLRip, HDrip] (DUB, MVO) [ 2.13 GB ] Флешбэк / Memory [2022 BDRip] DUB [Велес] +MVO [TVShows] bober100 Скачать
7 | 0
Наши фильмы (Blu-ray, BD-Remux, HDDVD) [ 29.02 GB ] Флешбэк / Memory [2022 BD Remux 1080p] DUB [Велес] +MVO [TVShows] bober100 Скачать
1 | 0
Фильмы (WEB-DL 720p, 1080p) [ 3.02 GB ] Флешбэк / Memory [2022 WEB-DL 720p] DUB [Велес] +MVO [TVShows] bober100 Скачать
5 | 0
Фильмы 2022 [DVDrip, WEB-DLRip, HDrip] (DUB, MVO) [ 1.41 GB ] Флешбэк / Memory [2022 BDRip] DUB [Велес] bober100 Скачать
5 | 0
Ultra HD (UHD: 2K, 4K, 8K) — видео сверхвысокой чёткости [ 12.59 GB ] Флешбэк / Memory [2022 UHD WEB-DL-HEVC 2160p] DUB [Велес] +MVO [TVShows] bober100 Скачать
4 | 0
T Фильмы 2022 (Звук TS, Cam, VO, DVO) [ 2.18 GB ] Флешбэк / Memory [2022 WEB-DLRip-AVC] killermax2013 Скачать
5 | 0
T Фильмы 2022 (Звук TS, Cam, VO, DVO) [ 2.22 GB ] Флешбэк / Memory [2022 WEB-DLRip-AVC] DVO [Pazl Voice] от ExKinoRay Lithuania Скачать
333 | 0

28-11-2019 20:33  

Отключить вcю реклaмy на сайте

    Дорогой пользователь! Огромная просьба, поблагодарите релизера, оцените раздачу и оставьте свои комментарий, если Вы скачали Флешбэк через торрент бесплатно!
    Комментировать посты могут только пользователи прошедшие не сложную регистрацию
    Показать сообщения:    

    Флешбэк через торрент
    Скачать бесплатно Флешбэк
    Флешбэк скачать торрент
    Флешбэк смотреть онлайн
    Cкачать фильм Флешбэк бесплатно
    Флешбэк скачать торрент в хорошем качестве
    Флешбэк смотреть онлайн бесплатно в хорошем качестве


    Вы не можете начинать темы
    Вы не можете отвечать на сообщения
    Вы не можете редактировать свои сообщения
    Вы не можете удалять свои сообщения
    Вы не можете голосовать в опросах
    Вы не можете прикреплять файлы к сообщениям
    Вы можете скачивать файлы