Ссылка на приватное зеркало всего за 1$. Внимание количество ограничено!!!

iTunes

iTunes

iTunes

1

iTunes

iTunes

iTunes

WEBRip

iTunes

30
pack

$ от Little Big

ВАЖНО

!!Акция!!

Alien_RageХит недели

RePack

Resident Evil 21

ИГРА 18+

pack

RePack

jed

!!Акция!!

Alien_Rage

RePack

fifa19

RePack

Assassins Creed: Odyssey

RePack

NEED FOR SPEED™ PAYBACK

4 сезон

9 сезон

Бесстыжие 9 сезон

Все сериалы

все сериалы на PB.wtf

RePack

FAR CRY 5
  

Кунг-фу Панда: Праздничный выпуск / Kung Fu Panda Holiday Special (Тим Джонсон / Tim Johnson) [2010, мультфильм, короткометражка, комедия, семейный, HDTV 1080i] piratbit.org

Кунг-фу Панда: Праздничный выпуск через торрент piratbit.org

Размер: 1.78 GB | Добавлен: 8 лет 7 мес. назад | Торрент скачан:347 раз
Скачать  

07-01-2012 19:19 Кунг-фу Панда: Праздничный выпуск Скачать торрент  

Кунг-фу Панда: Праздничный выпуск / Kung Fu Panda Holiday Special
Страна: США
Жанр: мультфильм, короткометражка, комедия, семейный
Продолжительность: 00:21:01
Год выпуска: 2010
Перевод: Профессиональный (дублированный) - СТС
Перевод 2: Любительский (многоголосый закадровый) - SkyeFilmTV
Перевод 3: Любительский (одноголосый закадровый) - zamez
Русские субтитры: есть

Режиссёр: Тим Джонсон / Tim Johnson
Рейтинг: |
Описание: Каждый год, По и его отец развешивают игрушки и вместе готовят суп с лапшой для жителей своей деревни. Но в этом году Шифу сообщает По, что он, как воин дракона обязан устроить праздник в нефритовом дворце. По разрывается между обязанностями воина дракона и семейной традицией.
Релиз:
Качество: HDTV 1080i
Формат: Ts
Видео кодек: MPEG-2
Аудио кодек: AC-3
Видео: 1920x1080 (16:9), 29.970 fps, MPEG-2 Video, ~10.2 Mbps, 0.164 bits/pixel
Аудио 1: Russian, 48.0 KHz, AC3, 2 ch, 192 Kbps - Дубляж
Аудио 2: Russian, 48.0 KHz, AC3, 6 ch, 384 Kbps - SkyeFilmTV
Аудио 3: Russian, 48.0 KHz, AC3, 6 ch, 384 Kbps - zamez
Аудио 4: English, 48.0 KHz, AC3, 6 ch, 384 Kbps - Оригинал
Субтитры: Русские
Код: Format : MPEG-TS
File size : 1.78 GiB
Duration : 21mn 2s
Overall bit rate mode : Variable
Overall bit rate : 12.1 Mbps
Maximum Overall bit rate : 35.5 Mbps
Video
ID : 4113 (0x1011)
Menu ID : 1 (0x1)
Format : MPEG Video
Format version : Version 2
Format profile : Main@High
Format settings, BVOP : Yes
Format settings, Matrix : Custom
Codec ID : 2
Duration : 21mn 2s
Bit rate mode : Variable
Bit rate : 10.2 Mbps
Maximum bit rate : 24.0 Mbps
Width : 1 920 pixels
Height : 1 080 pixels
Display aspect ratio : 16:9
Active Format Description : Full frame 16:9 image
Frame rate : 29.970 fps
Color space : YUV
Chroma subsampling : 4:2:0
Bit depth : 8 bits
Scan type : Interlaced
Scan order : Top Field First
Compression mode : Lossy
Bits/(Pixel*Frame) : 0.164
Stream size : 1.50 GiB (84%)
Audio #1
ID : 4352 (0x1100)
Menu ID : 1 (0x1)
Format : AC-3
Format/Info : Audio Coding 3
Mode extension : CM (complete main)
Codec ID : 129
Duration : 21mn 2s
Bit rate mode : Constant
Bit rate : 192 Kbps
Channel(s) : 2 channels
Channel positions : Front: L R
Sampling rate : 48.0 KHz
Bit depth : 16 bits
Compression mode : Lossy
Stream size : 28.9 MiB (2%)
Language : Russian
Audio #2
ID : 4353 (0x1101)
Menu ID : 1 (0x1)
Format : AC-3
Format/Info : Audio Coding 3
Mode extension : CM (complete main)
Codec ID : 129
Duration : 21mn 1s
Bit rate mode : Constant
Bit rate : 384 Kbps
Channel(s) : 6 channels
Channel positions : Front: L C R, Side: L R, LFE
Sampling rate : 48.0 KHz
Bit depth : 16 bits
Compression mode : Lossy
Stream size : 57.8 MiB (3%)
Language : Russian
Audio #3
ID : 4354 (0x1102)
Menu ID : 1 (0x1)
Format : AC-3
Format/Info : Audio Coding 3
Mode extension : CM (complete main)
Codec ID : 129
Duration : 21mn 1s
Bit rate mode : Constant
Bit rate : 384 Kbps
Channel(s) : 6 channels
Channel positions : Front: L C R, Side: L R, LFE
Sampling rate : 48.0 KHz
Bit depth : 16 bits
Compression mode : Lossy
Stream size : 57.7 MiB (3%)
Language : Russian
Audio #4
ID : 4355 (0x1103)
Menu ID : 1 (0x1)
Format : AC-3
Format/Info : Audio Coding 3
Mode extension : CM (complete main)
Codec ID : 129
Duration : 21mn 2s
Bit rate mode : Constant
Bit rate : 384 Kbps
Channel(s) : 6 channels
Channel positions : Front: L C R, Side: L R, LFE
Sampling rate : 48.0 KHz
Bit depth : 16 bits
Compression mode : Lossy
Stream size : 57.8 MiB (3%)
Language : English
Text #1
ID : 4113 (0x1011)-608-1
Menu ID : 1 (0x1)
Format : EIA-608
Muxing mode : A/53 / DTVCC Transport
Muxing mode, more info : Muxed in Video #1
Duration : 21mn 2s
Bit rate mode : Constant
Stream size : 0.00 Byte (0%)
Text #2
ID : 4113 (0x1011)-1
Menu ID : 1 (0x1)
Format : EIA-708
Muxing mode : A/53 / DTVCC Transport
Muxing mode, more info : Muxed in Video #1
Duration : 21mn 2s
Bit rate mode : Constant
Stream size : 0.00 Byte (0%)
Text #3
ID : 4608 (0x1200)
Menu ID : 1 (0x1)
Format : PGS
Codec ID : 144
Duration : 20mn 54s
Delay relative to video : 5s 505ms
Language : Russian

piratbit.org



Скачать Кунг-фу Панда: Праздничный выпуск через торрент http://i1.imageban.ru/out/2012/01/06/e0eca11ce7ba3b579043aa8fb42e0a34.png Скачать фильм Кунг-фу Панда: Праздничный выпуск через торрент бесплантно в хорошем качестве Описание: Каждый год, По и его отец развешивают игрушки и вместе готовят суп с лапшой для жителей своей деревни. Но в этом году Шифу ... 10 10 5
Info! Золотая раздача, скачанное не засчитывается.
Торрент: Зарегистрирован [2012-01-07 19:19] · скачан: 347 раз
Статус: √ проверено
Размер: 1.78 GB
Как cкачать? Как скачать Кунг-фу Панда: Праздничный выпуск через торрент | qTorrent

% Раздел Тема Автор DL S | L
Короткометражные мультфильмы [ 454 MB ] Кунг-фу Панда: Праздничный выпуск / Kung Fu Panda Holiday Special [2010 мультфильм короткометражка HDTVRip-AVC] DUB MVO VO Eng Sub serg7628 Скачать
1 | 0
Иностранные мультфильмы [ 174 MB ] Кунг-Фу Панда: Праздничный выпуск / Kung Fu Panda Holiday Special [2010 анимация HDTVRip] SD Скачать
1 | 0
Иностранные мультфильмы [ 475 MB ] Кунг-фу Панда: Праздничный выпуск / Kung Fu Panda Holiday Special [2010 мультфильм HDTV] Lil Badun Скачать
1 | 0

28-11-2019 20:33  

Отключить всю рекламу на сайте

    Дорогой пользователь! Огромная просьба, поблагодарите релизера, оцените раздачу и оставьте свои комментарий, если Вы скачали Кунг-фу Панда: Праздничный выпуск через торрент бесплатно! Внесите свою лепту в развитие PiratBit!
    Комментировать посты могут только пользователи прошедшие не сложную регистрацию
    Показать сообщения:    

    Кунг-фу Панда: Праздничный выпуск через торрент
    Скачать бесплатно Кунг-фу Панда: Праздничный выпуск
    Кунг-фу Панда: Праздничный выпуск скачать торрент
    Кунг-фу Панда: Праздничный выпуск смотреть онлайн
    Cкачать фильм Кунг-фу Панда: Праздничный выпуск бесплатно
    Кунг-фу Панда: Праздничный выпуск скачать торрент в хорошем качестве
    Кунг-фу Панда: Праздничный выпуск смотреть онлайн бесплатно в хорошем качестве


    Вы не можете начинать темы
    Вы не можете отвечать на сообщения
    Вы не можете редактировать свои сообщения
    Вы не можете удалять свои сообщения
    Вы не можете голосовать в опросах
    Вы не можете прикреплять файлы к сообщениям
    Вы можете скачивать файлы