Ссылка на приватное зеркало всего за 1$. Внимание количество ограничено!!!

OK

1+1

iTunes

мы

OK

1

WEB-DLRip

Джокер

Пифагор

Ведьмак / The Witcher сериал

Лицензия

ПШазам

ОК

Оно 2

iTunes

30
pack

Вам бонус

ВАЖНО

!!Акция!!

Alien_RageХит недели

RePack

Resident Evil 21

ИГРА 18+

pack

RePack

jed

!!Акция!!

Alien_Rage

RePack

fifa19

RePack

Assassins Creed: Odyssey

RePack

NEED FOR SPEED™ PAYBACK

4 сезон

9 сезон

Бесстыжие 9 сезон

Все сериалы

все сериалы на PB.wtf

RePack

FAR CRY 5
  

Поддубный (Глеб Орлов) [2014, Драма, спорт, биография, BDRip] от HQ-ViDEO / Лицензия piratbit.org

Поддубный через торрент piratbit.org

Размер: 2.18 GB | Добавлен: 5 лет 4 мес. назад | Торрент скачан:1209 раз
Скачать  

23-08-2014 10:22 Поддубный Скачать торрент  

Поддубный
  • Год выпуска: 2014
  • Страна: Россия
  • Жанр: Драма, спорт, биография
  • Продолжительность: 01:57:41
  • Перевод: Оригинал | Лицензия
  • Субтитры: нет
  • Режиссер: Глеб Орлов
  • В ролях: Михаил Пореченков (Иван Поддубный), Дени Лаван (тренер Поддубного), Владимир Ильин (менеджер Поддубного), Юрий Колокольников (менеджер Поддубного), Роман Мадянов, Александр Михайлов (отец Поддубного), Катерина Шпица (возлюбленная Поддубного), Максим Сапрыкин (Ваня Поддубный в детстве), Петр Крылов (Никита Поддубный), Андрей Дебрин (еврей), Владимир Машук (младший из братьев), Арсен Джемилёв (еврей в ломбарде)
Его называли Чемпион чемпионов. О силе и волевом характере Поддубного слагали легенды. И в 50 великий борец играючи одолевал молодых атлетов, а вопросах чести и справедливости не знал компромиссов. И лишь любовь смогла уложить Русского Богатыря на обе лопатки...
КиноПоиск | IMDB | Семпл |
  • Качество: BDDRip | Poddubny_HDCLUB
  • Формат: AVI
  • Видео кодек: XviD
  • Аудио кодек: AC3
  • Видео: XviD, 720x304 (2.37:1), ~2196 kbps avg, 25,000 fps
  • Аудио 1: AC3 Dolby Digital, 48 KHz, ~448 kbps, 3/2 (L,C,R,l,r) + LFE ch
General
Complete name : Poddubnyi.2014.RUS.BDRip.XviD.AC3.-HQ-ViDEO.avi
Format : AVI
Format/Info : Audio Video Interleave
Format profile : OpenDML
File size : 2.18 GiB
Duration : 1h 57mn
Overall bit rate : 2 498 Kbps
Movie name : Poddubnyi.2014.RUS.BDRip.XviD.AC3.-HQ-ViDEO.avi
Genre : Драма, мелодрама, биография, спорт
Recorded date : 23.08.2014
Writing application : VirtualDubMod 1.5.10.3 | www.virtualdub-fr.org || (build 2550/release)
Writing library : VirtualDubMod build 2550/release
Copyright : rip by ivandubskoj

Video
ID : 0
Format : MPEG-4 Visual
Format profile : Advanced Simple@L5
Format settings, BVOP : 1
Format settings, QPel : No
Format settings, GMC : No warppoints
Format settings, Matrix : Custom
Codec ID : XVID
Codec ID/Hint : XviD
Duration : 1h 57mn
Bit rate : 2 196 Kbps
Width : 720 pixels
Height : 304 pixels
Display aspect ratio : 2.35:1
Frame rate : 25.000 fps
Color space : YUV
Chroma subsampling : 4:2:0
Bit depth : 8 bits
Scan type : Progressive
Compression mode : Lossy
Bits/(Pixel*Frame) : 0.373
Stream size : 1.68 GiB (82%)
Writing library : XviD 73

Audio
ID : 1
Format : AC-3
Format/Info : Audio Coding 3
Mode extension : CM (complete main)
Codec ID : 2000
Duration : 1h 57mn
Bit rate mode : Constant
Bit rate : 448 Kbps
Channel(s) : 6 channels
Channel positions : Front: L C R, Side: L R, LFE
Sampling rate : 48.0 KHz
Bit depth : 16 bits
Compression mode : Lossy
Stream size : 377 MiB (18%)
Alignment : Split accross interleaves
Interleave, duration : 64 ms (1.60 video frames)
Interleave, preload duration : 500 ms
Title : Russian
piratbit.org



Скачать Поддубный через торрент http://i40.fastpic.ru/big/2012/0908/78/de2cf72517cc416df24aaffc0b649c78.png Скачать фильм Поддубный через торрент бесплантно в хорошем качестве В ролях: Михаил Пореченков (Иван Поддубный), Дени Лаван (тренер Поддубного), Владимир Ильин (менеджер Поддубного), Юрий Колокольников ... 9.4 10 32
Info! Золотая раздача, скачанное не засчитывается.
Торрент: Зарегистрирован [2014-08-23 10:22] · скачан: 1 209 раз
Статус: √ проверено
Размер: 2.18 GB
Как cкачать? Как скачать Поддубный через торрент | qTorrent

28-11-2019 20:33  

Отключить всю рекламу на сайте

08-11-2015 16:11 Поддубный Скачать торрент  

Можем ли мы снимать хорошее кино - конечно можем, если деньги будут выделяться тем режиссерам, которые действительно могут снимать хорошие фильмы.piratbit.org



    Дорогой пользователь! Огромная просьба, поблагодарите релизера, оцените раздачу и оставьте свои комментарий, если Вы скачали Поддубный через торрент бесплатно! Внесите свою лепту в развитие PiratBit!
    Комментировать посты могут только пользователи прошедшие не сложную регистрацию
    Показать сообщения:    

    Поддубный через торрент
    Скачать бесплатно Поддубный
    Поддубный скачать торрент
    Поддубный смотреть онлайн
    Cкачать фильм Поддубный бесплатно
    Поддубный скачать торрент в хорошем качестве
    Поддубный смотреть онлайн бесплатно в хорошем качестве


    Вы не можете начинать темы
    Вы не можете отвечать на сообщения
    Вы не можете редактировать свои сообщения
    Вы не можете удалять свои сообщения
    Вы не можете голосовать в опросах
    Вы не можете прикреплять файлы к сообщениям
    Вы можете скачивать файлы