Ссылка на приватное зеркало всего за 1$. Внимание количество ограничено!!!

OK

1+1

iTunes

мы

OK

1

WEB-DLRip

Джокер

Пифагор

Ведьмак / The Witcher сериал

Лицензия

ПШазам

ОК

Оно 2

iTunes

30
pack

Вам бонус

ВАЖНО

!!Акция!!

Alien_RageХит недели

RePack

Resident Evil 21

ИГРА 18+

pack

RePack

jed

!!Акция!!

Alien_Rage

RePack

fifa19

RePack

Assassins Creed: Odyssey

RePack

NEED FOR SPEED™ PAYBACK

4 сезон

9 сезон

Бесстыжие 9 сезон

Все сериалы

все сериалы на PB.wtf

RePack

FAR CRY 5
  

Нечаянно (Жора Крыжовников) [2014, Россия, короткометражка, WEB-DL 720p) piratbit.org

Нечаянно через торрент piratbit.org

Размер: 372 MB | Добавлен: 5 лет назад | Торрент скачан:487 раз
Скачать  

31-12-2014 01:27 Нечаянно Скачать торрент  

Нечаянно


  • Год выпуска: 2014
  • Страна: Россия
  • Жанр: короткометражка
  • Продолжительность: 00:20:33
  • Перевод: Не требуется

  • Режиссер: Жора Крыжовников
  • В ролях:

    Тимофей Трибунцев, Юлия Александрова, Юрий Кузнецов, Александр Паль, Сергей Лавыгин

  • Описание:
    Рассказ о приключениях одной семьи в новогоднюю ночь, когда веселый ход празднества нарушает непреднамеренное убийство....
  • Рейтинг:



  • Качество: WEB-DL 720p
  • Формат: :MKV
  • Видео кодек: AVC
  • Аудио кодек: AC3
  • Видео: 1280x560 (2.25:1), 2034 kbps, 25 fps, 0,114 bpp
  • Аудио: русский / 5.1 / 48 kHz / 448 kbps / 16 bit
  • Релиз от: GEKADOL

    Код:

    General
    Unique ID                                : 210427096734850254048859574725324385378 (0x9E4EC8E03668A495BB0326F2985D2C62)
    Complete name                            : I:\Nechajanno.2014.WEB-DL.(720p).ExKinoRay.mkv
    Format                                   : Matroska
    Format version                           : Version 2
    File size                                : 372 MiB
    Duration                                 : 20mn 33s
    Overall bit rate                         : 2 533 Kbps
    Encoded date                             : UTC 2014-12-30 20:59:49
    Writing application                      : mkvmerge v5.8.0 ('No Sleep / Pillow') built on Sep  2 2012 15:37:04
    Writing library                          : libebml v1.2.3 + libmatroska v1.3.0

    Video
    ID                                       : 1
    Format                                   : AVC
    Format/Info                              : Advanced Video Codec
    Format profile                           : High@L4.0
    Format settings, CABAC                   : Yes
    Format settings, ReFrames                : 4 frames
    Codec ID                                 : V_MPEG4/ISO/AVC
    Duration                                 : 20mn 33s
    Bit rate                                 : 2 034 Kbps
    Width                                    : 1 280 pixels
    Height                                   : 560 pixels
    Display aspect ratio                     : 2.25:1
    Frame rate mode                          : Variable
    Frame rate                               : 25.000 fps
    Color space                              : YUV
    Chroma subsampling                       : 4:2:0
    Bit depth                                : 8 bits
    Scan type                                : Progressive
    Bits/(Pixel*Frame)                       : 0.114
    Stream size                              : 299 MiB (80%)
    Language                                 : Russian
    Default                                  : Yes
    Forced                                   : Yes

    Audio
    ID                                       : 2
    Format                                   : AC-3
    Format/Info                              : Audio Coding 3
    Mode extension                           : CM (complete main)
    Codec ID                                 : A_AC3
    Duration                                 : 20mn 33s
    Bit rate mode                            : Constant
    Bit rate                                 : 448 Kbps
    Channel(s)                               : 6 channels
    Channel positions                        : Front: L C R, Side: L R, LFE
    Sampling rate                            : 48.0 KHz
    Bit depth                                : 16 bits
    Compression mode                         : Lossy
    Stream size                              : 65.9 MiB (18%)
    Language                                 : Russian
    Default                                  : Yes
    Forced                                   : Yes


    Скриншоты:



    piratbit.org



  • Скачать Нечаянно через торрент http://i65.fastpic.ru/big/2014/1231/49/1d129113a4a2724555419aef4f994449.jpg Скачать фильм Нечаянно через торрент бесплантно в хорошем качестве Описание: Рассказ о приключениях одной семьи в новогоднюю ночь, когда веселый ход празднества нарушает непреднамеренное ... 9 10 13
    Торрент: Зарегистрирован [2014-12-31 01:27] · скачан: 487 раз
    Статус: √ проверено
    Размер: 372 MB
    Как cкачать? Как скачать Нечаянно через торрент | qTorrent

    % Раздел Тема Автор DL S | L
    HD ролики [ 1021 MB ] Помогая сестричке нечаянно её трахнул / Mandy Flores [2013 All Sex Oral Big Tits Incest POV HD 720p] sheker187 Скачать
    1 | 0
    Наши новые фильмы 2012 [ 2.07 GB ] Нечаянная радость [2012 Мело SATRip] -=Cherry=- Скачать
    1 | 0

    28-11-2019 20:33  

    Отключить всю рекламу на сайте

    31-12-2014 05:36 Нечаянно Скачать торрент  

    нифига себе семейка ))piratbit.org



    31-12-2014 06:17 Нечаянно Скачать торрент  

    Romiros1980 писал(а):

    нифига себе семейка ))

    ))) С натупающим Всех) :ng:piratbit.org



    05-01-2015 00:39 Нечаянно Скачать торрент  

    В описании весь фильм ахахах, остается концовку досмотреть куда труп денут и сколько в итоге на нервозе оливье сожрут за ночь.piratbit.org



    07-01-2015 04:37 Нечаянно Скачать торрент  

    семейка с фамилией Ибатулины.отличная корометражка.piratbit.org



    29-11-2015 10:33 Нечаянно Скачать торрент  

    супер!!!!!!!!!!piratbit.org



      Дорогой пользователь! Огромная просьба, поблагодарите релизера, оцените раздачу и оставьте свои комментарий, если Вы скачали Нечаянно через торрент бесплатно! Внесите свою лепту в развитие PiratBit!
      Комментировать посты могут только пользователи прошедшие не сложную регистрацию
      Показать сообщения:    

      Нечаянно через торрент
      Скачать бесплатно Нечаянно
      Нечаянно скачать торрент
      Нечаянно смотреть онлайн
      Cкачать фильм Нечаянно бесплатно
      Нечаянно скачать торрент в хорошем качестве
      Нечаянно смотреть онлайн бесплатно в хорошем качестве


      Вы не можете начинать темы
      Вы не можете отвечать на сообщения
      Вы не можете редактировать свои сообщения
      Вы не можете удалять свои сообщения
      Вы не можете голосовать в опросах
      Вы не можете прикреплять файлы к сообщениям
      Вы можете скачивать файлы