смотреть онлайн / скачать торрент Оппенгеймер

MVO

смотреть онлайн / скачать торрент Убийца

Дубляж

смотреть онлайн / скачать торрент Поколение «Ви»

1 сезон

Активация Call of Duty®: Modern Warfare® III

Deluxe

Активация Mortal Kombat 1 Premium Edition

Premium

Активация Atomic Heart - Annihilation Instinct

ВСЕ DLC

смотреть онлайн / скачать торрент Телохранитель на фрилансе

Дубляж

смотреть онлайн / скачать торрент Звук свободы

MVO

смотреть онлайн / скачать торрент Ведьмак / The Witcher / Сезон: 3

3 сезон

смотреть онлайн / скачать торрент Стражи Галактики. Часть 3

Дубляж

Рекомендуем

Рекомендуем

ВАЖНО

ВАЖНО

скачать торрент Lords of the Fallen

Steam-Rip

ARMORED CORE™ VI FIRES OF RUBICON™

Steam-Rip

jed

RePack

PAYDAY 3

Пиратка

RDR2

RePack

Hogwarts Legacy

Steam-Rip

смотреть онлайн / скачать торрент Захваченный

Невафильм

смотреть онлайн / скачать торрент Острые козырьки 6 сезон

6 сезон

FAR CRY 6

RePack

скачать торрент Dead Island™ 2

EGS-Rip

скачать торрент The Quarry

Steam-Rip

  

Патхан. Схватка со смертью / Pathaan (Сиддхарт Ананд) [2023, боевик, триллер, приключения, WEB-DL 1080p] Дубляж

Патхан. Схватка со смертью через торрент piratbit.org

Размер: 6.9 GB | Добавлен: 3 мес. 11 д. назад | Торрент скачан:138 раз
assassins creed mirage активация

2023-08-19 17:40 Патхан. Схватка со смертью Скачать торрент  

Патхан. Схватка со смертью Название: Патхан. Схватка со смертью
Оригинальное название: Pathaan
Год выпуска: 2023
Жанр: боевик, триллер, приключения
Выпущено: Индия / Yash Raj Films
Режиссер: Сиддхарт Ананд
В ролях: Шах Рукх Кхан, Джон Абрахам, Дипика Падукон, Димпл Кападиа, Ашутош Рана, Салман Кхан, Аакаш Бхатиджа, Пракаш Белавади, Вираф Патель, Шаджи Чаудхари

Описание: Спецагент Патхан получает информацию о готовящемся масштабном теракте в Индии. Используя свои выдающиеся шпионские и боевые навыки, он идет по следу безжалостного наемника Джима, чтобы нарушить его планы и предотвратить катастрофу. Патхан вступает в смертельную битву, ставка в которой — будущее всей страны.

рейтинг imdb рейтинг кинопоиск
Возраст: 16+ (зрителям, достигшим 16 лет)

Продолжительность: 02:26:22
Перевод: Дублированный (The Kitchen Russia)
Субтитры: Отсутствуют

Файл
Формат: MKV
Качество: WEB-DL 1080p
Видео: AVC/H.264, 1920x1080, ~6140 Kbps
Аудио: AC3, 6 ch, 640 Kbps - Русский (Дубляж)
Релиз от: karfagen1975
General
Unique ID : 320017295105851048679202625054370849429 (0xF0C116D1A844E556F8B8E587A79A6295)
Complete name : Pathaan (2023) WEB-DL 1080p.mkv
Format : Matroska
Format version : Version 4
File size : 6.90 GiB
Duration : 2 h 26 min
Overall bit rate mode : Constant
Overall bit rate : 6 750 kb/s
Encoded date : UTC 2023-08-18 15:38:26
Writing application : mkvmerge v75.0.0 ('Goliath') 64-bit
Writing library : libebml v1.4.4 + libmatroska v1.7.1

Video
ID : 1
Format : AVC
Format/Info : Advanced Video Codec
Format profile : Baseline@L4
Format settings : 2 Ref Frames
Format settings, CABAC : No
Format settings, Reference frames : 2 frames
Codec ID : V_MPEG4/ISO/AVC
Duration : 2 h 26 min
Bit rate mode : Constant
Bit rate : 6 144 kb/s
Width : 1 920 pixels
Height : 1 080 pixels
Display aspect ratio : 16:9
Frame rate mode : Constant
Frame rate : 24.000 FPS
Color space : YUV
Chroma subsampling : 4:2:0
Bit depth : 8 bits
Scan type : Progressive
Bits/(Pixel*Frame) : 0.123
Stream size : 6.24 GiB (90%)
Title : Патхан. Схватка со смертью (2023) WEB-DL 1080p
Language : Hindi
Default : Yes
Forced : No

Audio
ID : 2
Format : AC-3
Format/Info : Audio Coding 3
Commercial name : Dolby Digital
Codec ID : A_AC3
Duration : 2 h 26 min
Bit rate mode : Constant
Bit rate : 640 kb/s
Channel(s) : 6 channels
Channel layout : L R C LFE Ls Rs
Sampling rate : 48.0 kHz
Frame rate : 31.250 FPS (1536 SPF)
Compression mode : Lossy
Stream size : 670 MiB (9%)
Title : Дубляж (The Kitchen Russia)
Language : Russian
Service kind : Complete Main
Default : Yes
Forced : No
скриншот  скриншот  скриншот  скриншот  

Смотрeть онлайн Фильм Патхан. Схватка со смертью в хорошем HD 1080 качестве



Описание: Спецагент Патхан получает информацию о готовящемся масштабном теракте в Индии. Используя свои выдающиеся шпионские и боевые ... https://i.ibb.co/RcPSQp9/be15f689d662b2c28d1a4e967d27dc3d.jpg https://i.ibb.co/RcPSQp9/be15f689d662b2c28d1a4e967d27dc3d.jpg 2023-08-19 17:40 Cмотреть онлайн Патхан. Схватка со смертью true ru Скачать Патхан. Схватка со смертью через торрент, смотреть онлайн Патхан. Схватка со смертью https://i.ibb.co/RcPSQp9/be15f689d662b2c28d1a4e967d27dc3d.jpg Скачать торрент Патхан. Схватка со смертью , смотреть онлайн Патхан. Схватка со смертью , бесплатно в хорошем качестве Описание: Спецагент Патхан получает информацию о готовящемся масштабном теракте в Индии. Используя свои выдающиеся шпионские и боевые ... 8.7 10 7
Торрент: Зарегистрирован [2023-08-19 17:40] · скачан: 138 раз
Статус: √ проверено
Размер: 6.9 GB
Как cкачать? Как скачать Патхан. Схватка со смертью через торрент | UTorrent | Поделиться в телеграм




Последний раз редактировалось: 3737 (2023-08-19 18:17), всего редактировалось 4 раз(а)

28-11-2019 20:33  


Отключить вcю реклaмy на сайте!

2023-08-19 17:44 Патхан. Схватка со смертью Скачать торрент  




2023-08-19 20:05 Патхан. Схватка со смертью Скачать торрент  

на букву "Х", только не подумайте что "хорошо"



2023-08-19 20:06 Патхан. Схватка со смертью Скачать торрент  

Только индийские лошади так могут.



2023-08-20 05:31 Патхан. Схватка со смертью Скачать торрент  

Последнее время, индийские фильмы не уступают американским.



    Дорогой пользователь! Огромная просьба, поблагодарите релизера, оцените раздачу и оставьте свои комментарий, если Вы скачали Патхан. Схватка со смертью через торрент бесплатно!!
    Комментировать посты могут только пользователи прошедшие не сложную регистрацию
    Показать сообщения:    


    смотреть онлайн Патхан. Схватка со смертью
    Патхан. Схватка со смертью через торрент
    Скачать бесплатно Патхан. Схватка со смертью
    Патхан. Схватка со смертью скачать торрент
    Патхан. Схватка со смертью смотреть онлайн
    Cкачать фильм Патхан. Схватка со смертью бесплатно
    Патхан. Схватка со смертью скачать торрент в хорошем качестве
    Патхан. Схватка со смертью смотреть онлайн бесплатно в хорошем качестве
    Вы не можете начинать темы
    Вы не можете отвечать на сообщения
    Вы не можете редактировать свои сообщения
    Вы не можете удалять свои сообщения
    Вы не можете голосовать в опросах
    Вы не можете прикреплять файлы к сообщениям
    Вы можете скачивать файлы