Достать ножи: Стеклянная луковица

MVO

Добыча

Дубляж

Уэнсдэй

1 сезон

Тор

Дубляж

13 клиническая

1 сезон

Жестокая ночь

MVO

Одни из нас

1 сезон

Deluxe

pack

Рекомендуем

30

Пиратка

ВАЖНО

ВАЖНО

Ghostwire

Пиратка

jed

RePack

nioh2

RePack

RDR2

RePack

NEED FOR SPEED™ PAYBACK

RePack

скачать торрент

Кинопоиск HD

Острые козырьки 6 сезон

6 сезон

FAR CRY 6

RePack

скачать торрент

Лицензия

скачать торрент

MVO

1

1 сезон

скачать торрент

1 сезон

скачать торрент

Лицензия

  

Впусти меня. Сага / Let Me In (Мэтт Ривз) [2010 г., ужасы, фэнтези, драма, BD-Remux, Дубляж, лицензия]

Впусти меня. Сага через торрент piratbit.org

Размер: 28.1 GB | Добавлен: 10 лет назад | Торрент скачан:15 раз
Смотреть онлайн | Скачать | Поддержите нас   

11-01-2013 10:42 Впусти меня. Сага Скачать торрент  

Впусти меня. Сага / Let Me In

Год выпуска: 2010
Страна: Великобритания
Жанр: ужасы, фэнтези, драма
Продолжительность: 01:55:04
Перевод: Дубляж, Лицензия

Режиссер: Мэтт Ривз
Продюссер: Тобин Армруст, Александр Ив Бруннер, Гай Ист
Сценарий: Йон Айвиде Линдквист, Мэтт Ривз

Мировой рейтинг IMDB 7.20 (50 912)


В ролях: Коди Смит-МакФи, Хлоя Грейс Морец, Ричард Дженкинс, Кара Буоно, Элиас Котеас, Александра Баррези, Дилан Кенин, Крис Браунинг, Ричи Костер, Дилан Миннетт

Описание: Действие фильма развивается в заснеженном пригороде Нью-Мехико, где живет 12-летний мальчик-изгой Оуэн. Однажды в сумерках Оуэн знакомится со своей новой соседкой Эбби, но он даже не догадывается, что его первая любовь, невинная соседская девчонка, на самом деле — вампирша...

Качество: BD-Remux
Формат: BDAV
Видео кодек: AVC
Аудио кодек: AC3
Видео: MPEG-4 AVC, 32.1 Мбит/с, 1920х1080, 23.976 кадр/с
Аудио#1: Русский (AC3, 6 ch, 448 Кбит/с, 48.0 КГц, 16 бит)
Аудио#2: Английский (AC3, 6 ch, 640 Кбит/с, 48.0 КГц, 16 бит)
Аудио#3: Английский (AC3, 2 ch, 192 Кбит/с, 48.0 КГц, 16 бит)
Субтитры: Английские

Общее
Идентификатор : 1 (0x1)
Полное имя : E:Let.Me.In.2010.BD.Remux.1080p.AVC.Rus.Eng.CommentaryBDMVSTREAM\00000.m2ts
Формат : BDAV
Формат/Информация : Blu-ray Video
Размер файла : 28,1 Гбайт
Продолжительность : 1 ч. 55 м.
Режим общего битрейта : Переменный
Общий поток : 34,8 Мбит/сек
Максимальный общий битрейт : 35,5 Мбит/сек

Видео
Идентификатор : 4113 (0x1011)
Идентификатор меню : 1 (0x1)
Формат : AVC
Формат/Информация : Advanced Video Codec
Профиль формата : High@L4.1
Параметр CABAC формата : Да
Параметр ReFrames формата : 2 кадра
Параметр GOP формата : M=1, N=10
Идентификатор кодека : 27
Продолжительность : 1 ч. 55 м.
Вид битрейта : Переменный
Битрейт : 32,1 Мбит/сек
Ширина : 1920 пикселей
Высота : 1080 пикселей
Соотношение сторон : 16:9
Частота кадров : 23,976 кадра/сек
Цветовое пространство : YUV
Субдискретизация насыщенности : 4:2:0
Битовая глубина : 8 бит
Тип развёртки : Прогрессивная
Бит/(Пиксели*Кадры) : 0.645
Размер потока : 25,9 Гбайт (92%)

Аудио #1
Идентификатор : 4352 (0x1100)
Идентификатор меню : 1 (0x1)
Формат : AC-3
Формат/Информация : Audio Coding 3
Расширение режима : CM (complete main)
Параметр Endianness формата : Big
Идентификатор кодека : 129
Продолжительность : 1 ч. 55 м.
Вид битрейта : Постоянный
Битрейт : 448 Кбит/сек
Каналы : 6 каналов
Расположение каналов : Front: L C R, Side: L R, LFE
Частота : 48,0 КГц
Битовая глубина : 16 бит
Метод сжатия : С потерями
Размер потока : 371 Мбайт (1%)
Язык : Russian

Аудио #2
Идентификатор : 4353 (0x1101)
Идентификатор меню : 1 (0x1)
Формат : TrueHD / AC-3
Расширение режима : CM (complete main)
Параметр Endianness формата : Big
Режим смешивания : Stream extension
Идентификатор кодека : 131
Продолжительность : 1 ч. 55 м.
Вид битрейта : Переменный / Постоянный
Битрейт : 640 Кбит/сек
Максимальный битрейт : 4974 Кбит/сек
Каналы : 6 каналов
Расположение каналов : Front: L C R, Side: L R, LFE
Частота : 48,0 КГц
Битовая глубина : 16 бит
Размер потока : 530 Мбайт (2%)
Язык : English

Аудио #3
Идентификатор : 4354 (0x1102)
Идентификатор меню : 1 (0x1)
Формат : AC-3
Формат/Информация : Audio Coding 3
Расширение режима : CM (complete main)
Параметр Endianness формата : Big
Идентификатор кодека : 129
Продолжительность : 1 ч. 55 м.
Вид битрейта : Постоянный
Битрейт : 192 Кбит/сек
Каналы : 2 канала
Расположение каналов : Front: L R
Частота : 48,0 КГц
Битовая глубина : 16 бит
Метод сжатия : С потерями
Размер потока : 159 Мбайт (1%)
Язык : English

Текст
Идентификатор : 4608 (0x1200)
Идентификатор меню : 1 (0x1)
Формат : PGS
Идентификатор кодека : 144
Язык : English


Впусти меня. Сага скачать торрент





Скачать Впусти меня. Сага через торрент http://i52.fastpic.ru/big/2013/0111/0f/574f43f8ad62c38e71d365b365b4600f.jpg Скачать, смотреть онлайн Впусти меня. Сага бесплантно в хорошем качестве Описание: Действие фильма развивается в заснеженном пригороде Нью-Мехико, где живет 12-летний мальчик-изгой Оуэн. Однажды в сумерках Оуэн ... 10 10 2
Info! Золотая раздача, скачанное не засчитывается.
Торрент: Зарегистрирован [2013-01-11 10:42] · скачан: 15 раз
Статус: √ проверено
Размер: 28.1 GB
Как cкачать? Как скачать Впусти меня. Сага через торрент | UTorrent

% Раздел Тема Автор DL S | L
Фильмы [HD 720p, 1080p] (Хороший звук DUB, MVO) [ 11.62 GB ] Впусти меня. Сага / Let Me In | DUB | 1080p msltel Скачать
1 | 0
Фильмы [HD 720p, 1080p] (Хороший звук DUB, MVO) [ 4.13 GB ] Впусти меня. Сага / Let Me In | DUB | 720p msltel Скачать
1 | 0
Фильмы 2010 [ 2.34 GB ] Впусти меня. Сага / Let Me In | DUB | BDRip AVC msltel Скачать
1 | 0
Фильмы 2010 [ 1.46 GB ] Впусти меня. Сага / Let Me In | | HDRip-AVC, лицензия Lil Badun Скачать
1 | 0
Фильмы [HD 720p, 1080p] (Хороший звук DUB, MVO) [ 9.79 GB ] Впусти меня. Сага / Let Me In | | 1080p NarutoSasuke Скачать
1 | 0
Фильмы 2010 [ 1.37 GB ] Впусти меня. Сага / Let Me In | | DVDRip, лицензия Wayne33 Скачать
1 | 0
Фильмы [HD 720p, 1080p] (Хороший звук DUB, MVO) [ 5.58 GB ] Впусти меня. Сага / Let Me In | | 720p Wayne33 Скачать
1 | 0

28-11-2019 20:33  


Отключить вcю реклaмy на сайте, в т.ч. и в плеере онлайн просмотра!

    Дорогой пользователь! Огромная просьба, поблагодарите релизера, оцените раздачу и оставьте свои комментарий, если Вы скачали Впусти меня. Сага через торрент бесплатно!!
    Комментировать посты могут только пользователи прошедшие не сложную регистрацию
    Показать сообщения:    


    Впусти меня. Сага через торрент
    Скачать бесплатно Впусти меня. Сага
    Впусти меня. Сага скачать торрент
    Впусти меня. Сага смотреть онлайн
    Cкачать фильм Впусти меня. Сага бесплатно
    Впусти меня. Сага скачать торрент в хорошем качестве
    Впусти меня. Сага смотреть онлайн бесплатно в хорошем качестве
    Вы не можете начинать темы
    Вы не можете отвечать на сообщения
    Вы не можете редактировать свои сообщения
    Вы не можете удалять свои сообщения
    Вы не можете голосовать в опросах
    Вы не можете прикреплять файлы к сообщениям
    Вы можете скачивать файлы
    Впусти меня. Сага / Let Me In [2010 г., ужасы, фэнтези, драма, BD-Remux, Дубляж, лицензия] смотреть онлайн, скачать торрент picoco.icu