Ссылка на приватное зеркало нашего сайта всего за 1$. Внимание количество ограничено!!!

2 сезон

iTunes

iTunes

1

iTunes

iTunes

iTunes

WEBRip

iTunes

30
pack

Вам бонус

ВАЖНО

!!Акция!!

Alien_RageХит недели

RePack

Horizon Zero Dawn

ИГРА 18+

pack

RePack

jed

!!Акция!!

Alien_Rage

RePack

fifa19

RePack

Assassins Creed: Odyssey

RePack

NEED FOR SPEED™ PAYBACK

4 сезон

9 сезон

Бесстыжие 9 сезон

Все сериалы

все сериалы на PB.wtf

RePack

FAR CRY 5
  

Приговоренные / The Condemned (Скотт Вайпер) [2007 г., боевик, триллер, BDRip, Профессиональный + Оригинал] piratbit.org

Приговоренные через торрент piratbit.org

Размер: 1.42 GB | Добавлен: 7 лет 8 мес. назад | Торрент скачан:515 раз
Скачать  

12-01-2013 21:25 Приговоренные Скачать торрент  

Приговоренные / The Condemned
«10 человек будут сражаться. 9 человек умрут. Вы это увидите.»

Год выпуска: 2007
Страна: США
Жанр: боевик, триллер
Продолжительность: 01:53:38
Перевод: Профессиональный + Оригинал

Режиссер: Скотт Вайпер
Продюссер: Джоэль Саймон, Джед Блаугрунд, Питер Блок
Сценарий: Скотт Вайпер, Роб Хедден, Энди Хедден

Бюджет: $20 000 000
Премьера в мире: 8 февраля 2007

В ролях: Стив Остин, Винни Джонс, Рик Хоффман, Роберт Мамон, Тори Массет, Кристофер Бэйкер, Сэм Хили, Мадлен Уэст, Люк Пеглер, Маса Ямагучи, Джон Беннетт, Маркус Джонсон, Натан Джонс, Энди МакФи, Салливан Степлтон, Грант Пиро

Описание: Заключенный Джо Конрад ожидает смертной казни в одной из тюрем Центральной Америки. Но так просто парню уйти из этой жизни не суждено: Конрада берет в оборот влиятельный телепродюсер, набирающий участников для нового реалити-шоу. Вместе с девятью другими приговоренными к смерти Джо оказывается на необитаемом острове.
Разумеется, игра ведется по принципу «каждый сам за себя», и задача, стоящая перед участниками, проста: уничтожить остальных «смертников» и таким образом завоевать свободу.

Качество: BDRip (Исходник Blu-Ray)
Формат: AVI
Видео кодек: XviD
Аудио кодек: AC3
Видео: 720х400, 23,976 fps, 1396 kbps, 0.202 bit/pixel
Аудио#1: 48 kHz, AC3 2.0, 192.00 kbps / Профессиональный (многоголосый закадровый)
Аудио#2: 48 kHz, AC3 2.0, 192.00 kbps / Оригинал (Английский)
&
Общее
Полное имя : E:Фильмы МThe Condemned.2007.BDRip.avi
Формат : AVI
Формат/Информация : Audio Video Interleave
Размер файла : 1,42 Гбайт
Продолжительность : 1 ч. 53 м.
Общий поток : 1794 Кбит/сек
Программа кодирования : VirtualDubModRus 1.5.10.2 (build 2542/release)
Библиотека кодирования : VirtualDubMod build 2542/release

Видео
Идентификатор : 0
Формат : MPEG-4 Visual
Профиль формата : Advanced Simple@L5
Параметр BVOP формата : 1
Параметр QPel формата : Нет
Параметр GMC формата : Без точки перехода
Параметр матрицы формата : Выборочная
Режим смешивания : Сжатый битовый поток
Идентификатор кодека : XVID
Идентификатор кодека/Подсказка : XviD
Продолжительность : 1 ч. 53 м.
Битрейт : 1396 Кбит/сек
Ширина : 720 пикселей
Высота : 400 пикселей
Соотношение сторон : 16:9
Частота кадров : 23,976 кадра/сек
Цветовое пространство : YUV
Субдискретизация насыщенности : 4:2:0
Битовая глубина : 8 бит
Тип развёртки : Прогрессивная
Метод сжатия : С потерями
Бит/(Пиксели*Кадры) : 0.202
Размер потока : 1,11 Гбайт (78%)
Библиотека кодирования : XviD 65

Аудио #1
Идентификатор : 1
Формат : AC-3
Формат/Информация : Audio Coding 3
Расширение режима : CM (complete main)
Параметр Endianness формата : Big
Идентификатор кодека : 2000
Продолжительность : 1 ч. 53 м.
Вид битрейта : Постоянный
Битрейт : 192 Кбит/сек
Каналы : 2 канала
Расположение каналов : Front: L R
Частота : 48,0 КГц
Битовая глубина : 16 бит
Метод сжатия : С потерями
Размер потока : 156 Мбайт (11%)
Выравнивание : Разделение по промежуткам
Продолжительность промежутка : 42 мс. (1,00 видеокадр)
Время предзагрузки промежутка : 500 мс.
Заголовок : Профессиональный (многоголосый закадровый)

Аудио #2
Идентификатор : 2
Формат : AC-3
Формат/Информация : Audio Coding 3
Расширение режима : CM (complete main)
Параметр Endianness формата : Big
Идентификатор кодека : 2000
Продолжительность : 1 ч. 53 м.
Вид битрейта : Постоянный
Битрейт : 192 Кбит/сек
Каналы : 2 канала
Расположение каналов : Front: L R
Частота : 48,0 КГц
Битовая глубина : 16 бит
Метод сжатия : С потерями
Размер потока : 156 Мбайт (11%)
Выравнивание : Разделение по промежуткам
Продолжительность промежутка : 42 мс. (1,00 видеокадр)
Время предзагрузки промежутка : 500 мс.
Заголовок : Оригинал (Английский)


Приговоренные скачать торрент


piratbit.org



Скачать Приговоренные через торрент http://i53.fastpic.ru/big/2013/0112/0a/a248301c7610285fda4d92dbf1d92a0a.jpg Скачать фильм Приговоренные через торрент бесплантно в хорошем качестве Описание: Заключенный Джо Конрад ожидает смертной казни в одной из тюрем Центральной Америки. Но так просто парню уйти из этой жизни не ... 10 10 4
Info! Золотая раздача, скачанное не засчитывается.
Торрент: Зарегистрирован [2013-01-12 21:25] · скачан: 515 раз
Статус: √ проверено
Размер: 1.42 GB
Как cкачать? Как скачать Приговоренные через торрент | qTorrent

% Раздел Тема Автор DL S | L
Фильмы 2015 [DVDrip, WEB-DLRip, HDrip] [ 2.17 GB ] Приговорённые 2: Охота в пустыне / The Condemned 2 [2015 BDRip-AVC] Dub potroks Скачать
1 | 0
Фильмы 2015 [DVDrip, WEB-DLRip, HDrip] [ 1.42 GB ] Приговорённые 2: Охота в пустыне / The Condemned 2 [2015 BDRip-AVC от sokol_ok] Dub sokol_ok Скачать
2 | 0
Фильмы 2015 [DVDrip, WEB-DLRip, HDrip] [ 709 MB ] Приговорённые 2: Охота в пустыне / The Condemned 2 [2015 HDRip ] coc900 Скачать
1 | 0
Фильмы 2015 [DVDrip, WEB-DLRip, HDrip] [ 2.87 GB ] Приговорённые 2: Охота в пустыне / The Condemned 2 [2015 BDRip-AVC от sokol_ok] Dub sokol_ok Скачать
2 | 0
Фильмы 2015 [DVDrip, WEB-DLRip, HDrip] [ 1.37 GB ] Приговорённые 2: Охота в пустыне / The Condemned 2 [2015 HDRip ] Ворон Скачать
1 | 0
Фильмы [HD 720p, 1080p] (Хороший звук DUB, MVO) [ 10.73 GB ] Приговорённые 2: Охота в пустыне / The Condemned 2 [2015 BDRip 1080p ] Ворон Скачать
1 | 0
Порно фильмы с русским переводом [ 3.76 GB ] Приговоренные. / The Condemned. [2010 FeatureBig Budget. WEB-DLRip 720p многоголосый] Pir@tya2010 Скачать
1 | 0

28-11-2019 20:33  

Отключить всю рекламу на сайте

12-01-2013 22:01 Приговоренные Скачать торрент  

Зачетный фильмец,смотреть стоит.Остин и Винни Джонс жгутpiratbit.org



12-01-2013 22:41 Приговоренные Скачать торрент  

Озвучка Гланц и Королёва???piratbit.org



    Дорогой пользователь! Огромная просьба, поблагодарите релизера, оцените раздачу и оставьте свои комментарий, если Вы скачали Приговоренные через торрент бесплатно! Внесите свою лепту в развитие PiratBit!
    Комментировать посты могут только пользователи прошедшие не сложную регистрацию
    Показать сообщения:    

    Приговоренные через торрент
    Скачать бесплатно Приговоренные
    Приговоренные скачать торрент
    Приговоренные смотреть онлайн
    Cкачать фильм Приговоренные бесплатно
    Приговоренные скачать торрент в хорошем качестве
    Приговоренные смотреть онлайн бесплатно в хорошем качестве


    Вы не можете начинать темы
    Вы не можете отвечать на сообщения
    Вы не можете редактировать свои сообщения
    Вы не можете удалять свои сообщения
    Вы не можете голосовать в опросах
    Вы не можете прикреплять файлы к сообщениям
    Вы можете скачивать файлы