Ссылка на приватное зеркало нашего сайта всего за 1$. Внимание количество ограничено!!!

2 сезон

iTunes

iTunes

1

iTunes

iTunes

iTunes

WEBRip

iTunes

30
pack

Забери бонус

ВАЖНО

!!Акция!!

Alien_RageХит недели

RePack

RESIDENT EVIL 3: NEMESIS REMAKE

ИГРА 18+

pack

RePack

jed

!!Акция!!

Alien_Rage

RePack

fifa19

RePack

Assassins Creed: Odyssey

RePack

NEED FOR SPEED™ PAYBACK

4 сезон

9 сезон

Бесстыжие 9 сезон

Все сериалы

все сериалы на PB.wtf

RePack

FAR CRY 5
  

Туннели смерти / Тоннельные крысы / Tunnel Rats / 1968. Tunnel Rats (Уве Болл) [2008 г., боевик, драма, военный, BDRip, MVO + DVO + Оригинал] piratbit.org

Туннели смерти через торрент piratbit.org

Размер: 2 GB | Добавлен: 7 лет 8 мес. назад | Торрент скачан:221 раз
Скачать  

14-01-2013 15:05 Туннели смерти Скачать торрент  

Туннели смерти / Тоннельные крысы / Tunnel Rats / 1968. Tunnel Rats
«Ад для героев»

Год выпуска: 2008
Страна: Канада, Германия
Жанр: боевик, драма, военный
Продолжительность: 01:36:12
Перевод: Профессиональный (многоголосый закадровый) CP Digital + Любительский (двухголосый закадровый) Электричка + Оригинал (Английский)

Режиссер: Уве Болл
Продюссер: Дэн Кларк, Крис Роланд, Уве Болл
Сценарий: Уве Болл, Дэн Кларк

Бюджет: $8 000 000

В ролях: Майкл Паре, Уил Бэтель, Эдриан Коллинз, Скотт Купер, Митч Икинс, Эрик Эйдем, Брэндон Фоббс, Джейн Ле, Скотт Ли, Рокки Маркетт

Описание: Тоннельные крысы — спецподразделение вооружённых сил США, Австралии и Н. Зеландии, созданное исключительно для действий в системе подземных туннелей вьетнамских партизан. «Крысы» были экипированы кольтом М1911, фонариком и портативной рацией. Действие фильма разворачивается во время войны во Вьетнаме, рассказывает о судьбе молодого американского бойца, захваченного в плен вьетнамскими партизанами. Сбежав из лагеря для военнопленных, герой попадает в хорошо укрепленную долину в провинции Ку Чи. Его ждут напичканные ловушками джунгли и кишкообразные тоннели, где ему предстоит увидеть немало ужасных сцен и выжить любой ценой...

Качество: BDRip (Исходник BD-Remux)
Формат: AVI
Видео кодек: XviD
Аудио кодек: AC3
Видео: 720х304, 23,976 fps, 1601 kbps, 0.305 bit/pixel
Аудио#1: 48 kHz, AC3 5.1, 448.00 kbps / Профессиональный (многоголосый закадровый) CP Digital
Аудио#2: 48 kHz, AC3 5.1, 448.00 kbps / Любительский (двухголосый закадровый) Электричка
Аудио#3: 48 kHz, AC3 5.1, 448.00 kbps / Оригинал (Английский)
&
Общее
Полное имя : E:Фильмы МTunnel Rats.2008.BDRip.avi
Формат : AVI
Формат/Информация : Audio Video Interleave
Профиль формата : OpenDML
Размер файла : 2,00 Гбайт
Продолжительность : 1 ч. 36 м.
Общий поток : 2970 Кбит/сек
Программа кодирования : VirtualDubModRus 1.5.10.2 (build 2542/release)
Библиотека кодирования : VirtualDubMod build 2542/release

Видео
Идентификатор : 0
Формат : MPEG-4 Visual
Профиль формата : Advanced Simple@L5
Параметр BVOP формата : 1
Параметр QPel формата : Нет
Параметр GMC формата : Без точки перехода
Параметр матрицы формата : Выборочная
Режим смешивания : Сжатый битовый поток
Идентификатор кодека : XVID
Идентификатор кодека/Подсказка : XviD
Продолжительность : 1 ч. 36 м.
Битрейт : 1601 Кбит/сек
Ширина : 720 пикселей
Высота : 304 пикселя
Соотношение сторон : 2,35:1
Частота кадров : 23,976 кадра/сек
Цветовое пространство : YUV
Субдискретизация насыщенности : 4:2:0
Битовая глубина : 8 бит
Тип развёртки : Прогрессивная
Метод сжатия : С потерями
Бит/(Пиксели*Кадры) : 0.305
Размер потока : 1,08 Гбайт (54%)
Библиотека кодирования : XviD 65

Аудио #1
Идентификатор : 1
Формат : AC-3
Формат/Информация : Audio Coding 3
Расширение режима : CM (complete main)
Параметр Endianness формата : Big
Идентификатор кодека : 2000
Продолжительность : 1 ч. 36 м.
Вид битрейта : Постоянный
Битрейт : 448 Кбит/сек
Каналы : 6 каналов
Расположение каналов : Front: L C R, Side: L R, LFE
Частота : 48,0 КГц
Битовая глубина : 16 бит
Метод сжатия : С потерями
Размер потока : 308 Мбайт (15%)
Выравнивание : Разделение по промежуткам
Продолжительность промежутка : 42 мс. (1,00 видеокадр)
Время предзагрузки промежутка : 500 мс.
Заголовок : Профессиональный (многоголосый закадровый) CP Digital

Аудио #2
Идентификатор : 2
Формат : AC-3
Формат/Информация : Audio Coding 3
Расширение режима : CM (complete main)
Параметр Endianness формата : Big
Идентификатор кодека : 2000
Продолжительность : 1 ч. 36 м.
Вид битрейта : Постоянный
Битрейт : 448 Кбит/сек
Каналы : 6 каналов
Расположение каналов : Front: L C R, Side: L R, LFE
Частота : 48,0 КГц
Битовая глубина : 16 бит
Метод сжатия : С потерями
Размер потока : 308 Мбайт (15%)
Выравнивание : Разделение по промежуткам
Продолжительность промежутка : 42 мс. (1,00 видеокадр)
Время предзагрузки промежутка : 500 мс.
Заголовок : Любительский (двухголосый закадровый) Электричка

Аудио #3
Идентификатор : 3
Формат : AC-3
Формат/Информация : Audio Coding 3
Расширение режима : CM (complete main)
Параметр Endianness формата : Big
Идентификатор кодека : 2000
Продолжительность : 1 ч. 36 м.
Вид битрейта : Постоянный
Битрейт : 448 Кбит/сек
Каналы : 6 каналов
Расположение каналов : Front: L C R, Side: L R, LFE
Частота : 48,0 КГц
Битовая глубина : 16 бит
Метод сжатия : С потерями
Размер потока : 308 Мбайт (15%)
Выравнивание : Разделение по промежуткам
Продолжительность промежутка : 42 мс. (1,00 видеокадр)
Время предзагрузки промежутка : 500 мс.
Заголовок : Оригинал (Английский)


Туннели смерти скачать торрент


piratbit.org



Скачать Туннели смерти через торрент http://i53.fastpic.ru/big/2013/0114/fd/45a4938b97619c95a6e2bd6203d622fd.jpg Скачать фильм Туннели смерти через торрент бесплантно в хорошем качестве Описание: Тоннельные крысы — спецподразделение вооружённых сил США, Австралии и Н. Зеландии, созданное исключительно для действий в системе ... 7.7 10 3
Info! Золотая раздача, скачанное не засчитывается.
Торрент: Зарегистрирован [2013-01-14 15:05] · скачан: 221 раз
Статус: √ проверено
Размер: 2 GB
Как cкачать? Как скачать Туннели смерти через торрент | qTorrent

28-11-2019 20:33  

Отключить всю рекламу на сайте

14-01-2013 17:39 Туннели смерти Скачать торрент  

Качну,на кинопоиске сказали,что это единственный нормальный фильм Уве Болла.piratbit.org



14-01-2013 18:46 Туннели смерти Скачать торрент  

Большое Вам спс!.......piratbit.org



14-01-2013 18:59 Туннели смерти Скачать торрент  

В описании "понравилось"слово-"герой"-понятно что имеется в виду герой фильма,а ведь они себя реально мнят героями-придурки жиромозглые,вот она империя зла во всей красе-тогда Вьетнам сейчас Сирия и Ирак-кто на очереди?piratbit.org



22-02-2013 17:47 Туннели смерти Скачать торрент  

Хороший фильм американцам не смотретьpiratbit.org



    Дорогой пользователь! Огромная просьба, поблагодарите релизера, оцените раздачу и оставьте свои комментарий, если Вы скачали Туннели смерти через торрент бесплатно! Внесите свою лепту в развитие PiratBit!
    Комментировать посты могут только пользователи прошедшие не сложную регистрацию
    Показать сообщения:    

    Туннели смерти через торрент
    Скачать бесплатно Туннели смерти
    Туннели смерти скачать торрент
    Туннели смерти смотреть онлайн
    Cкачать фильм Туннели смерти бесплатно
    Туннели смерти скачать торрент в хорошем качестве
    Туннели смерти смотреть онлайн бесплатно в хорошем качестве


    Вы не можете начинать темы
    Вы не можете отвечать на сообщения
    Вы не можете редактировать свои сообщения
    Вы не можете удалять свои сообщения
    Вы не можете голосовать в опросах
    Вы не можете прикреплять файлы к сообщениям
    Вы можете скачивать файлы