Ссылка на приватное зеркало нашего сайта всего за 1$. Внимание количество ограничено!!!

2 сезон

iTunes

iTunes

1

iTunes

iTunes

iTunes

WEBRip

iTunes

30
pack

Вам бонус

ВАЖНО

!!Акция!!

Alien_RageХит недели

RePack

Horizon Zero Dawn

ИГРА 18+

pack

RePack

jed

!!Акция!!

Alien_Rage

RePack

fifa19

RePack

Assassins Creed: Odyssey

RePack

NEED FOR SPEED™ PAYBACK

4 сезон

9 сезон

Бесстыжие 9 сезон

Все сериалы

все сериалы на PB.wtf

RePack

FAR CRY 5
  

Привет, Билл! / Meet Bill / Bill (Берни Голдманн, Мелисса Уоллэк) [2007 г., комедия. драма, BDRip, DUB (Rus) + Профессиональный двухголосый (Ukr) + Оригинал] piratbit.org

Привет, Билл! через торрент piratbit.org

Размер: 2.06 GB | Добавлен: 7 лет 8 мес. назад | Торрент скачан:212 раз
Скачать  

14-01-2013 17:40 Привет, Билл! Скачать торрент  

Привет, Билл! / Meet Bill / Bill
«Комедия, вы знаете о ком...»

Год выпуска: 2007
Страна: США
Жанр: комедия. драма
Продолжительность: 01:29:27
Перевод: Дубляж + Профессиональный (двухголосый закадровый) - (Украинский - Новый канал) + Оригинал (Английский)

Режиссер: Берни Голдманн, Мелисса Уоллэк
Продюссер: Джон Пенотти, Мэттью Х. Роулэнд, Фишер Стивенс
Сценарий: Мелисса Уоллэк

Премьера в мире: 8 сентября 2007

В ролях: Аарон Экхарт, Джессика Альба, Элизабет Бэнкс, Логан Лерман, Холмс Осборн, Тодд Луисо, Тимоти Олифант, Рид Даймонд, Кристен Уиг, Джейсон Судейкис

Описание: Билла всегда считали настоящим мямлей и подкаблучником. Затюканный родственниками жены, он боялся даже помыслить о переменах в жизни. Но когда видеокамера запечатлела бурные постельные сцены его благоверной со «звездой» теленовостей, парень рассвирепел и помчался мстить.
Удар в зубы коварному любовнику жены в прямом эфире с последующим скандалом на ТВ — это было настоящее американское мега-шоу! Билл моментально обрел любовь миллионов телезрителей и стал популярным на всю страну! Это развернуло жизнь бывшего неудачника на 180 градусов.

Качество: BDRip (Исходник BD-Remux)
Формат: AVI
Видео кодек: XviD
Аудио кодек: AC3
Видео: 720х384, 25,000 fps, 1987 kbps, 0.287 bit/pixel
Аудио#1: 48 kHz, AC3 5.1, 448.00 kbps / Дубляж
Аудио#2: 48 kHz, AC3 5.1, 384.00 kbps / Профессиональный (двухголосый закадровый) - (Украинский - Новый канал)
Аудио#3: 48 kHz, AC3 5.1, 448.00 kbps / Оригинал (Английский)
&
Общее
Полное имя : E:Фильмы МMeet Bill.2007.BDRip.Rus.Ukr.Eng.avi
Формат : AVI
Формат/Информация : Audio Video Interleave
Профиль формата : OpenDML
Размер файла : 2,06 Гбайт
Продолжительность : 1 ч. 29 м.
Общий поток : 3292 Кбит/сек
Программа кодирования : VirtualDubModRus 1.5.10.2 (build 2542/release)
Библиотека кодирования : VirtualDubMod build 2542/release

Видео
Идентификатор : 0
Формат : MPEG-4 Visual
Профиль формата : Advanced Simple@L5
Параметр BVOP формата : 1
Параметр QPel формата : Нет
Параметр GMC формата : Без точки перехода
Параметр матрицы формата : Выборочная
Режим смешивания : Сжатый битовый поток
Идентификатор кодека : XVID
Идентификатор кодека/Подсказка : XviD
Продолжительность : 1 ч. 29 м.
Битрейт : 1987 Кбит/сек
Ширина : 720 пикселей
Высота : 384 пикселя
Соотношение сторон : 1,85:1
Частота кадров : 25,000 кадров/сек
Цветовое пространство : YUV
Субдискретизация насыщенности : 4:2:0
Битовая глубина : 8 бит
Тип развёртки : Прогрессивная
Метод сжатия : С потерями
Бит/(Пиксели*Кадры) : 0.287
Размер потока : 1,24 Гбайт (60%)
Библиотека кодирования : XviD 65

Аудио #1
Идентификатор : 1
Формат : AC-3
Формат/Информация : Audio Coding 3
Расширение режима : CM (complete main)
Параметр Endianness формата : Big
Идентификатор кодека : 2000
Продолжительность : 1 ч. 29 м.
Вид битрейта : Постоянный
Битрейт : 448 Кбит/сек
Каналы : 6 каналов
Расположение каналов : Front: L C R, Side: L R, LFE
Частота : 48,0 КГц
Битовая глубина : 16 бит
Метод сжатия : С потерями
Размер потока : 287 Мбайт (14%)
Выравнивание : Разделение по промежуткам
Продолжительность промежутка : 40 мс. (1,00 видеокадр)
Время предзагрузки промежутка : 500 мс.
Заголовок : Дубляж

Аудио #2
Идентификатор : 2
Формат : AC-3
Формат/Информация : Audio Coding 3
Расширение режима : CM (complete main)
Параметр Endianness формата : Big
Идентификатор кодека : 2000
Продолжительность : 1 ч. 29 м.
Вид битрейта : Постоянный
Битрейт : 384 Кбит/сек
Каналы : 6 каналов
Расположение каналов : Front: L C R, Side: L R, LFE
Частота : 48,0 КГц
Битовая глубина : 16 бит
Метод сжатия : С потерями
Размер потока : 246 Мбайт (12%)
Выравнивание : Разделение по промежуткам
Продолжительность промежутка : 40 мс. (1,00 видеокадр)
Время предзагрузки промежутка : 500 мс.
Заголовок : Профессиональный (двухголосый закадровый) - (Украинский - Новый канал)

Аудио #3
Идентификатор : 3
Формат : AC-3
Формат/Информация : Audio Coding 3
Расширение режима : CM (complete main)
Параметр Endianness формата : Big
Идентификатор кодека : 2000
Продолжительность : 1 ч. 29 м.
Вид битрейта : Постоянный
Битрейт : 448 Кбит/сек
Каналы : 6 каналов
Расположение каналов : Front: L C R, Side: L R, LFE
Частота : 48,0 КГц
Битовая глубина : 16 бит
Метод сжатия : С потерями
Размер потока : 287 Мбайт (14%)
Выравнивание : Разделение по промежуткам
Продолжительность промежутка : 40 мс. (1,00 видеокадр)
Время предзагрузки промежутка : 500 мс.
Заголовок : Оригинал (Английский)


Привет, Билл! скачать торрент


piratbit.org



Скачать Привет, Билл! через торрент http://i53.fastpic.ru/big/2013/0114/25/bc8c513b9e21eb7609e238899280bc25.jpg Скачать фильм Привет, Билл! через торрент бесплантно в хорошем качестве Описание: Билла всегда считали настоящим мямлей и подкаблучником. Затюканный родственниками жены, он боялся даже помыслить о переменах в ... 10 10 1
Info! Золотая раздача, скачанное не засчитывается.
Торрент: Зарегистрирован [2013-01-14 17:40] · скачан: 212 раз
Статус: √ проверено
Размер: 2.06 GB
Как cкачать? Как скачать Привет, Билл! через торрент | qTorrent

28-11-2019 20:33  

Отключить всю рекламу на сайте

14-01-2013 19:06 Привет, Билл! Скачать торрент  

Смотрел давно... Классный фильм!piratbit.org



    Дорогой пользователь! Огромная просьба, поблагодарите релизера, оцените раздачу и оставьте свои комментарий, если Вы скачали Привет, Билл! через торрент бесплатно! Внесите свою лепту в развитие PiratBit!
    Комментировать посты могут только пользователи прошедшие не сложную регистрацию
    Показать сообщения:    

    Привет, Билл! через торрент
    Скачать бесплатно Привет, Билл!
    Привет, Билл! скачать торрент
    Привет, Билл! смотреть онлайн
    Cкачать фильм Привет, Билл! бесплатно
    Привет, Билл! скачать торрент в хорошем качестве
    Привет, Билл! смотреть онлайн бесплатно в хорошем качестве


    Вы не можете начинать темы
    Вы не можете отвечать на сообщения
    Вы не можете редактировать свои сообщения
    Вы не можете удалять свои сообщения
    Вы не можете голосовать в опросах
    Вы не можете прикреплять файлы к сообщениям
    Вы можете скачивать файлы