Ссылка на приватное зеркало нашего сайта всего за 1$. Внимание количество ограничено!!!

2 сезон

iTunes

iTunes

1

iTunes

iTunes

iTunes

WEBRip

iTunes

30
pack

Новость дня

ВАЖНО

!!Акция!!

Alien_RageХит недели

RePack

Horizon Zero Dawn

ИГРА 18+

pack

RePack

jed

!!Акция!!

Alien_Rage

RePack

fifa19

RePack

Assassins Creed: Odyssey

RePack

NEED FOR SPEED™ PAYBACK

4 сезон

9 сезон

Бесстыжие 9 сезон

Все сериалы

все сериалы на PB.wtf

RePack

FAR CRY 5
  

Посейдон / Poseidon (Вольфганг Петерсен) [2006 г., боевик, триллер, драма, приключения, BDRip, DUB (Rus) + MVO (Ukr) + Оригинал] piratbit.org

Посейдон через торрент piratbit.org

Размер: 2.19 GB | Добавлен: 7 лет 8 мес. назад | Торрент скачан:221 раз
Скачать  

16-01-2013 22:14 Посейдон Скачать торрент  

Посейдон / Poseidon
«S.O.S.»

Год выпуска: 2006
Страна: США
Жанр: боевик, триллер, драма, приключения
Продолжительность: 01:38:14
Перевод: Дубляж + Профессиональный (многоголосый закадровый) - (Украинский - Новый канал) + Оригинал (Английский)

Режиссер: Вольфганг Петерсен
Продюссер: Майк Флайсс, Акива Голдсман, Дункан Хендерсон
Сценарий: Марк Протосевич, Пол Галлико

Бюджет: $160 000 000
Премьера в мире: 10 мая 2006

В ролях: Джош Лукас, Курт Расселл, Джэсинда Баррет, Ричард Дрейфусс, Эмми Россам, Миа Маэстро, Майк Фогель

Описание: В ночь под Новый год в сверкающих драгоценностями салонах тринадцатипалубного гиганта дамы и господа предаются беззаботному веселью. Капитан провозглашает торжественный тост, бьют часы, пространство огромного плавучего зала рассекают лучи прожекторов и падающие из-под люстр ленты серпантина. И в этот миг при полном штиле на судно, затмив луну, вдруг обрушивается мощная волна цунами, и гигант опрокидывается вверх дном. Остальное время фильма занимают попытки маленькой группы смельчаков выбраться из пучин и завалов наверх, к днищу, где, возможно, им удастся найти выход на волю.

Качество: BDRip (Исходник Blu-Ray)
Формат: AVI
Видео кодек: XviD
Аудио кодек: AC3
Видео: 720х304, 23,976 fps, 1947 kbps, 0.371 bit/pixel
Аудио#1: 48 kHz, AC3 5.1, 448.00 kbps / Дубляж
Аудио#2: 48 kHz, AC3 5.1, 384.00 kbps / Профессиональный (многоголосый закадровый) - (Украинский - Новый канал)
Аудио#3: 48 kHz, AC3 5.1, 384.00 kbps / Оригинал (Английский)
&
Общее
Полное имя : E:Фильмы МPoseidon.2006.BDRip.Rus.Ukr.Eng.avi
Формат : AVI
Формат/Информация : Audio Video Interleave
Профиль формата : OpenDML
Размер файла : 2,19 Гбайт
Продолжительность : 1 ч. 38 м.
Общий поток : 3187 Кбит/сек
Программа кодирования : VirtualDubModRus 1.5.10.2 (build 2542/release)
Библиотека кодирования : VirtualDubMod build 2542/release

Видео
Идентификатор : 0
Формат : MPEG-4 Visual
Профиль формата : Advanced Simple@L5
Параметр BVOP формата : 1
Параметр QPel формата : Нет
Параметр GMC формата : Без точки перехода
Параметр матрицы формата : Выборочная
Режим смешивания : Сжатый битовый поток
Идентификатор кодека : XVID
Идентификатор кодека/Подсказка : XviD
Продолжительность : 1 ч. 38 м.
Битрейт : 1947 Кбит/сек
Ширина : 720 пикселей
Высота : 304 пикселя
Соотношение сторон : 2,35:1
Частота кадров : 23,976 кадра/сек
Цветовое пространство : YUV
Субдискретизация насыщенности : 4:2:0
Битовая глубина : 8 бит
Тип развёртки : Прогрессивная
Метод сжатия : С потерями
Бит/(Пиксели*Кадры) : 0.371
Размер потока : 1,34 Гбайт (61%)
Библиотека кодирования : XviD 65

Аудио #1
Идентификатор : 1
Формат : AC-3
Формат/Информация : Audio Coding 3
Расширение режима : CM (complete main)
Параметр Endianness формата : Big
Идентификатор кодека : 2000
Продолжительность : 1 ч. 38 м.
Вид битрейта : Постоянный
Битрейт : 448 Кбит/сек
Каналы : 6 каналов
Расположение каналов : Front: L C R, Side: L R, LFE
Частота : 48,0 КГц
Битовая глубина : 16 бит
Метод сжатия : С потерями
Размер потока : 315 Мбайт (14%)
Выравнивание : Разделение по промежуткам
Продолжительность промежутка : 42 мс. (1,00 видеокадр)
Время предзагрузки промежутка : 500 мс.
Заголовок : Дубляж

Аудио #2
Идентификатор : 2
Формат : AC-3
Формат/Информация : Audio Coding 3
Расширение режима : CM (complete main)
Параметр Endianness формата : Big
Идентификатор кодека : 2000
Продолжительность : 1 ч. 38 м.
Вид битрейта : Постоянный
Битрейт : 384 Кбит/сек
Каналы : 6 каналов
Расположение каналов : Front: L C R, Side: L R, LFE
Частота : 48,0 КГц
Битовая глубина : 16 бит
Метод сжатия : С потерями
Размер потока : 270 Мбайт (12%)
Выравнивание : Разделение по промежуткам
Продолжительность промежутка : 42 мс. (1,00 видеокадр)
Время предзагрузки промежутка : 500 мс.
Заголовок : Профессиональный (многоголосый закадровый) - (Украинский - Новый канал)

Аудио #3
Идентификатор : 3
Формат : AC-3
Формат/Информация : Audio Coding 3
Расширение режима : CM (complete main)
Параметр Endianness формата : Big
Идентификатор кодека : 2000
Продолжительность : 1 ч. 38 м.
Вид битрейта : Постоянный
Битрейт : 384 Кбит/сек
Каналы : 6 каналов
Расположение каналов : Front: L C R, Side: L R, LFE
Частота : 48,0 КГц
Битовая глубина : 16 бит
Метод сжатия : С потерями
Размер потока : 270 Мбайт (12%)
Выравнивание : Разделение по промежуткам
Продолжительность промежутка : 42 мс. (1,00 видеокадр)
Время предзагрузки промежутка : 500 мс.
Заголовок : Оригинал (Английский)


Посейдон скачать торрент


piratbit.org



Скачать Посейдон через торрент http://i53.fastpic.ru/big/2013/0117/6c/30204f584557cab3936e9fe682396e6c.png Скачать фильм Посейдон через торрент бесплантно в хорошем качестве Описание: В ночь под Новый год в сверкающих драгоценностями салонах тринадцаалубного гиганта дамы и господа предаются беззаботному ... 9.7 10 3
Info! Золотая раздача, скачанное не засчитывается.
Торрент: Зарегистрирован [2013-01-16 22:14] · скачан: 221 раз
Статус: √ проверено
Размер: 2.19 GB
Как cкачать? Как скачать Посейдон через торрент | qTorrent

28-11-2019 20:33  

Отключить всю рекламу на сайте

    Дорогой пользователь! Огромная просьба, поблагодарите релизера, оцените раздачу и оставьте свои комментарий, если Вы скачали Посейдон через торрент бесплатно! Внесите свою лепту в развитие PiratBit!
    Комментировать посты могут только пользователи прошедшие не сложную регистрацию
    Показать сообщения:    

    Посейдон через торрент
    Скачать бесплатно Посейдон
    Посейдон скачать торрент
    Посейдон смотреть онлайн
    Cкачать фильм Посейдон бесплатно
    Посейдон скачать торрент в хорошем качестве
    Посейдон смотреть онлайн бесплатно в хорошем качестве


    Вы не можете начинать темы
    Вы не можете отвечать на сообщения
    Вы не можете редактировать свои сообщения
    Вы не можете удалять свои сообщения
    Вы не можете голосовать в опросах
    Вы не можете прикреплять файлы к сообщениям
    Вы можете скачивать файлы