1 сезон

3 сезон

iTunes

1

iTunes

MVO

iTunes

13

1 сезон

RePack

30

Deluxe

pack

Лицензия

ВАЖНО

ИГРА 18+

pack

RePack

MK11

RePack

jed

RePack

fifa19

RePack

RDR2

RePack

NEED FOR SPEED™ PAYBACK

4 сезон

9 сезон

Бесстыжие 9 сезон

Все сериалы

все сериалы на PB.wtf

RePack

FAR CRY 5

Anonymous, добрый вечер, мы катастрофически не успеваем собрать деньги на оплату серверов, помогите нам пожалуйста 5,10,15р., для нас важна любая помощь . В качестве благодарности мы отключим Вам всю рекламу на сайте (укажите свой ник в строку Ваше имя)!

×
  
Magnet ссылка

К-19 / K-19: The Widowmaker (Кэтрин Бигелоу / Kathryn Bigelow) [2002, США, триллер, драма, исторический, BDRip-AVC] DUB + Original (Eng) + Sub (Rus, Eng) piratbit.org

К-19 через торрент piratbit.org

Размер: 3.74 GB | Добавлен: 8 лет 6 мес. назад | Торрент скачан:189 раз
Скачать  

18-01-2013 11:52 К-19 Скачать торрент  

К-19: Оставляющая вдов / K-19: The Widowmaker
«Трагедия рождает героев»


Год выпуска: 2002
Страна: Великобритания, Германия, США, Канада
Жанр: триллер, драма, исторический
Продолжительность: 02:18:05
Перевод: Профессиональный (полное дублирование) + Оригинал
Cубтитры: русские, английские

Режиссер: Кэтрин Бигелоу / Kathryn Bigelow

В ролях: Харрисон Форд, Лиам Нисон, Питер Сарсгаард, Сэм Спруэлл, Питер Стеббингс, Кристиан Камарго, Роман Подхора, Сэм Редфорд, Стив Николсон, Равиль Исянов

Описание: Фильм основан на реальных событиях, произошедших с первой атомной советской подводной лодкой, которая потерпела аварию из-за неполадок в атомном реакторе в 1961 году. К-19 — это зримое свидетельство героизма русских моряков, которые служили на этой подводной лодке.
Фильм демонстрирует героизм капитана Алексея Вострикова, который в разгар холодной войны берет на себя командование атомной подводной лодкой К-19 вместо ее первого капитана Михаила Поленина. Миссия Вострикова — быстро подготовить подлодку к погружению, чего бы это ни стоило.
Но Востриков, Поленин и члены экипажа К-19 не могли себе вообразить всего, что от них ожидалось. Они не могли представить какой ценой обойдется для них стремительность подготовки субмарины к погружению…



Качество: BDRip-AVC
Формат: MKV
Видео кодек: H.26x
Аудио кодек: AC3
Видео: AVC, 1120x480 (2.35:1), 23.976 fps, 2 998 Kbps (0.233 bit/pixel)
Аудио # 1: AC-3, 48.0 KHz, 6 ch, 448 Kbps, CBR Rus

Аудио # 2: AC-3, 48.0 KHz, 6 ch, 448 Kbps, CBR Eng
СЕМПЛ
General
Complete name : E:...K-19.The.Widowmaker.2002.BDRip.x264.AC3.Rus.Eng-E76.mkv
Format : Matroska
File size : 3.74 GiB
Duration : 2h 18mn
Overall bit rate : 3 880 Kbps
Encoded date : UTC 2011-01-24 17:03:55
Writing application : mkvmerge v4.0.0 ('The Stars were mine') сборка от Jun 6 2010 16:18:42
Writing library : libebml v1.0.0 + libmatroska v1.0.0

Video
ID : 1
Format : AVC
Format/Info : Advanced Video Codec
Format profile : High@L4.1
Format settings, CABAC : Yes
Format settings, ReFrames : 10 frames
Codec ID : V_MPEG4/ISO/AVC
Duration : 2h 18mn
Bit rate : 2 998 Kbps
Width : 1 120 pixels
Height : 480 pixels
Display aspect ratio : 2.35:1
Frame rate : 23.976 fps
Color space : YUV
Chroma subsampling : 4:2:0
Bit depth : 8 bits
Scan type : Progressive
Bits/(Pixel*Frame) : 0.233
Stream size : 2.80 GiB (75%)
Writing library : x264 core 112 r1834 a51816a
Encoding settings : cabac=1 / ref=10 / deblock=1:-3:-2 / analyse=0x3:0x113 / me=umh / subme=10 / psy=1 / psy_rd=1.15:0.10 / mixed_ref=1 / me_range=48 / chroma_me=1 / trellis=2 / 8x8dct=1 / cqm=0 / deadzone=21,11 / fast_pskip=0 / chroma_qp_offset=-3 / threads=6 / sliced_threads=0 / nr=0 / decimate=0 / interlaced=0 / constrained_intra=0 / bframes=12 / b_pyramid=2 / b_adapt=2 / b_bias=0 / direct=3 / weightb=1 / open_gop=0 / weightp=2 / keyint=250 / keyint_min=23 / scenecut=40 / intra_refresh=0 / rc_lookahead=90 / rc=2pass / mbtree=0 / bitrate=2998 / ratetol=1.0 / qcomp=0.75 / qpmin=0 / qpmax=51 / qpstep=4 / cplxblur=20.0 / qblur=0.5 / vbv_maxrate=50000 / vbv_bufsize=62500 / ip_ratio=1.20 / pb_ratio=1.20 / aq=1:1.00 / zones=185950,198660,q=40 / nal_hrd=none
Language : English

Audio #1
ID : 2
Format : AC-3
Format/Info : Audio Coding 3
Mode extension : CM (complete main)
Codec ID : A_AC3
Duration : 2h 18mn
Bit rate mode : Constant
Bit rate : 448 Kbps
Channel(s) : 6 channels
Channel positions : Front: L C R, Side: L R, LFE
Sampling rate : 48.0 KHz
Bit depth : 16 bits
Stream size : 443 MiB (12%)
Title : Dub
Language : Russian

Audio #2
ID : 3
Format : AC-3
Format/Info : Audio Coding 3
Mode extension : CM (complete main)
Codec ID : A_AC3
Duration : 2h 18mn
Bit rate mode : Constant
Bit rate : 448 Kbps
Channel(s) : 6 channels
Channel positions : Front: L C R, Side: L R, LFE
Sampling rate : 48.0 KHz
Bit depth : 16 bits
Stream size : 443 MiB (12%)
Title : Original
Language : English

Text #1
ID : 4
Format : UTF-8
Codec ID : S_TEXT/UTF8
Codec ID/Info : UTF-8 Plain Text
Language : Russian

Text #2
ID : 5
Format : UTF-8
Codec ID : S_TEXT/UTF8
Codec ID/Info : UTF-8 Plain Text
Language : English

Menu
00:00:00.000 : en:00:00:00.000
00:09:01.416 : en:00:09:01.416
...
02:09:20.670 : en:02:09:20.670
piratbit.org



Скачать К-19 через торрент http://i40.fastpic.ru/big/2012/0907/f6/f09929973acc0a1b73d4a258153af7f6.jpg Скачать фильм К-19 через торрент бесплантно в хорошем качестве Описание: Фильм основан на реальных событиях, произошедших с первой атомной советской подводной лодкой, которая потерпела аварию из-за ... 10 10 4
Info! Золотая раздача, скачанное не засчитывается.
Торрент: Зарегистрирован [2013-01-18 11:52] · скачан: 189 раз
Статус: √ проверено
Размер: 3.74 GB
Как cкачать? Как скачать К-19 через торрент | UTorrent

% Раздел Тема Автор DL S | L
Фильмы (Blu-ray, BD-Remux, HDDVD) [ 46.35 GB ] К-19 / K-19: The Widowmaker [2002 история BD Remux 1080р] 2xAVO+DUB [] bober100 Скачать
2 | 0
T Релизы по Парсеру [Игры, Сериалы и Фильмы и другое...] [ 1.46 GB ] К-19 / K-19: The Widowmaker [2002 военный история BDRip] Dub sanekbest1 Скачать
1 | 0
Фильмы (BDRip, HDrip-AVC) (48-60 fps) [ 3.96 GB ] К-19 / K-19: The Widowmaker [2002 Германия военный BDRip-AVC 60fps ] от R.G. HD-Films Tiberiumsun69 Скачать
1 | 0
Фильмы 2001-2005 [ 2.05 GB ] К-19: Оставляющая вдов / K-19: The Widowmaker [2002 история военный HDRip] Alpex(52) Скачать
1 | 0
Фильмы 2001-2005 [ 2.15 GB ] К-19 / K-19: The Widowmaker [2002 история ... DVDRip] VintMosina Скачать
1 | 0

28-11-2019 20:33  

Отключить всю рекламу на сайте

18-01-2013 13:04 К-19 Скачать торрент  

Спасибо фильм очень хорошийpiratbit.org



22-01-2013 06:01 К-19 Скачать торрент  

Выражаю благодарность. Фильм действительно отличный. piratbit.org



    Дорогой пользователь! Огромная просьба, поблагодарите релизера, оцените раздачу и оставьте свои комментарий, если Вы скачали К-19 через торрент бесплатно! Внесите свою лепту в развитие PiratBit!
    Комментировать посты могут только пользователи прошедшие не сложную регистрацию
    Показать сообщения:    

    К-19 через торрент
    Скачать бесплатно К-19
    К-19 скачать торрент
    К-19 смотреть онлайн
    Cкачать фильм К-19 бесплатно
    К-19 скачать торрент в хорошем качестве
    К-19 смотреть онлайн бесплатно в хорошем качестве


    Вы не можете начинать темы
    Вы не можете отвечать на сообщения
    Вы не можете редактировать свои сообщения
    Вы не можете удалять свои сообщения
    Вы не можете голосовать в опросах
    Вы не можете прикреплять файлы к сообщениям
    Вы можете скачивать файлы