Ссылка на приватное зеркало нашего сайта всего за 1$. Внимание количество ограничено!!!

2 сезон

iTunes

iTunes

1

iTunes

iTunes

iTunes

WEBRip

iTunes

30
pack

Вам бонус

ВАЖНО

!!Акция!!

Alien_RageХит недели

RePack

Horizon Zero Dawn

ИГРА 18+

pack

RePack

jed

!!Акция!!

Alien_Rage

RePack

fifa19

RePack

Assassins Creed: Odyssey

RePack

NEED FOR SPEED™ PAYBACK

4 сезон

9 сезон

Бесстыжие 9 сезон

Все сериалы

все сериалы на PB.wtf

RePack

FAR CRY 5
  

WAZ: Камера пыток / w Delta z (Том Шенклэнд) [2007 г., ужасы, триллер, драма, криминал, BDRip] piratbit.org

WAZ: Камера пыток через торрент piratbit.org

Размер: 2.18 GB | Добавлен: 7 лет 8 мес. назад | Торрент скачан:170 раз
Скачать  

21-01-2013 01:25 WAZ: Камера пыток Скачать торрент  


WAZ: Камера пыток / w Delta z

Год выпуска: 2007
Страна: Великобритания
Жанр: ужасы, триллер, драма, криминал
Продолжительность: 01:43:57
Перевод: Профессиональный многоголосый

Режиссер: Том Шенклэнд
Продюссер: Аллан Нибло, Джеймс Ричардсон, Майкл Кэйси
Сценарий: Клив Брэдли

Бюджет: £5 000 000
Премьера в мире: 19 мая 2007

Детям до 17 лет обязательно присутствие родителей
5.70 (5 442)
5.379 (1417)

В ролях: Стеллан Скарсгард, Сельма Блэр, Мелисса Джордж, Эшли Уолтерс, Джон Шариан, Салли Хоукинс, Том Харди, Барбара Эдэйр, Лорен Худ, Шила Керр, Алибе Парсонс, Пол Кей

Описание: Детектив Эдди Арго и его напарница Хелен Уэсткотт расследуют цепь жестоких убийств, жертвами которых становятся члены одной из мелких преступных группировок города. Рассчетливый убийца постепенно подводит детектива к расплате за ошибки, допущенные в далеком прошлом, и задает ему главный вопрос — «Сможешь ли ты убить того, кого сильно любишь, чтобы спасти свою собственную жизнь?»…

Качество: BDRip
Формат: AVI
Видео кодек: XviD
Аудио кодек: AC3
Видео: 720x304, 23.976 fps, 2093 Кбит/с, 0.399 bit/pixel
Аудио#1: AC3, 48.0 KHz, 6 ch, 448 Кбит/с [rus]
Аудио#2: AC3, 48.0 KHz, 6 ch, 448 Кбит/с [en]

Релиз от: nn99nn
скриншот  скриншот  скриншот  скриншот  скриншот  





General
Полное имя : E:WAZ.Kamera.pytok.2007.DUAL.BDRip.XviD.AC3.-HQCLUB.avi
Формат : AVI
Формат/Информация : Audio Video Interleave
Профиль формата : OpenDML
Размер файла : 2.18 GiB
Продолжительность : 1h 43mn
Общий поток : 3 007 Kbps
Название фильма : WAZ: Камера пыток / w Delta z (2007) BDRip
Режиссёр : Vиkt0R
Жанр : Crime/Drama/Horror
Программа кодирования : VirtualDubModRus 1.5.10.2 (build 2542/release)
Правообладатель : hqclub.net
Примечание : R.G. HQCLUB

Video
Идентификатор : 0
Формат : MPEG-4 Visual
Профиль формата : Advanced Simple@L5
Параметр BVOP формата : 1
Параметр QPel формата : No
Параметр GMC формата : No warppoints
Параметр матрицы формата : Custom
Идентификатор кодека : XVID
Идентификатор кодека/Подсказка : XviD
Продолжительность : 1h 43mn
Битрейт : 2 093 Kbps
Ширина : 720 pixels
Высота : 304 pixels
Соотношение сторон : 2.35:1
Частота кадров : 23.976 fps
Цветовое пространство : YUV
Субдискретизация насыщенности : 4:2:0
Битовая глубина : 8 bits
Тип развёртки : Progressive
Метод сжатия : Lossy
Бит/(Пиксели*Кадры) : 0.399
Размер потока : 1.52 GiB (70%)
Библиотека кодирования : XviD 63

Audio #1
Идентификатор : 1
Формат : AC-3
Формат/Информация : Audio Coding 3
Расширение режима : CM (complete main)
Параметр Endianness формата : Big
Идентификатор кодека : 2000
Продолжительность : 1h 43mn
Вид битрейта : Constant
Битрейт : 448 Kbps
Каналы : 6 channels
Расположение каналов : Front: L C R, Side: L R, LFE
Частота : 48.0 KHz
Битовая глубина : 16 bits
Метод сжатия : Lossy
Размер потока : 333 MiB (15%)
Выравнивание : Split accross interleaves
Продолжительность промежутка : 42 ms (1.00 video frame)
Время предзагрузки промежутка : 500 ms

piratbit.org



Скачать WAZ: Камера пыток через торрент http://pic.kartinco.top/images/1/z3ucy33g2u.jpg Скачать фильм WAZ: Камера пыток через торрент бесплантно в хорошем качестве Описание: Детектив Эдди Арго и его напарница Хелен Уэсткотт расследуют цепь жестоких убийств, жертвами которых становятся члены одной из ... 5 10 1
Info! Золотая раздача, скачанное не засчитывается.
Торрент: Зарегистрирован [2013-01-21 01:25] · скачан: 170 раз
Статус: √ проверено
Размер: 2.18 GB
Как cкачать? Как скачать WAZ: Камера пыток через торрент | qTorrent

% Раздел Тема Автор DL S | L
Фильмы 2006-2008 [ 1.47 GB ] WAZ: Камера пыток / w Delta z [2007 HDRip] Tarantino47 Скачать
1 | 0
Фильмы 2006-2008 [ 745 MB ] WAZ: Камера пыток / w Delta z [2007 HDRip] nitles666 Скачать
1 | 0

28-11-2019 20:33  

Отключить всю рекламу на сайте

21-01-2013 02:11 WAZ: Камера пыток Скачать торрент  

Вот что за ерунда некоторые торрент файлы закодированы! В том числе и этот!(piratbit.org



21-01-2013 05:41 WAZ: Камера пыток Скачать торрент  

я зашел сюда в надежде увидеть док. фильм про автовазpiratbit.org



21-01-2013 08:12 WAZ: Камера пыток Скачать торрент  

Качество: BDRip 1080p Ты уверень???piratbit.org



21-01-2013 09:17 WAZ: Камера пыток Скачать торрент  

ВАЗ: Камера пыток на колёсах!))))piratbit.org



    Дорогой пользователь! Огромная просьба, поблагодарите релизера, оцените раздачу и оставьте свои комментарий, если Вы скачали WAZ: Камера пыток через торрент бесплатно! Внесите свою лепту в развитие PiratBit!
    Комментировать посты могут только пользователи прошедшие не сложную регистрацию
    Показать сообщения:    

    WAZ: Камера пыток через торрент
    Скачать бесплатно WAZ: Камера пыток
    WAZ: Камера пыток скачать торрент
    WAZ: Камера пыток смотреть онлайн
    Cкачать фильм WAZ: Камера пыток бесплатно
    WAZ: Камера пыток скачать торрент в хорошем качестве
    WAZ: Камера пыток смотреть онлайн бесплатно в хорошем качестве


    Вы не можете начинать темы
    Вы не можете отвечать на сообщения
    Вы не можете редактировать свои сообщения
    Вы не можете удалять свои сообщения
    Вы не можете голосовать в опросах
    Вы не можете прикреплять файлы к сообщениям
    Вы можете скачивать файлы