2 сезон

iTunes

MVO

1

2 сезон

iTunes

iTunes

1 сезон

RePack

30

Новинка

ВАЖНО

ИГРА 18+

pack

RePack

MK11
pack

Легкие деньги

RePack

jed

RePack

fifa19

RePack

RDR2

RePack

NEED FOR SPEED™ PAYBACK

4 сезон

9 сезон

Бесстыжие 9 сезон

Все сериалы

все сериалы на PB.wtf

RePack

FAR CRY 5

Anonymous, добрый вечер, мы не успеваем собрать деньги на оплату серверов за декабрь и январь, помогите нам пожалуйста в это трудное время. В качестве благодарности мы отключим Вам всю рекламу на сайте (укажите свой ник в строку Ваше имя)!

×
  
Magnet ссылка

Всё просто (Соня Карпунина) [2012 г., мелодрама, комедия, DVDRip, Оригинал] piratbit.org

Всё просто через торрент piratbit.org

Размер: 1.45 GB | Добавлен: 8 лет назад | Торрент скачан:811 раз
Скачать  

21-01-2013 17:52 Всё просто Скачать торрент  

Всё просто

Год выпуска: 2012
Страна: Россия
Жанр: мелодрама, комедия
Продолжительность: 01:34:41
Перевод: Оригинал

Режиссер: Соня Карпунина
Продюссер: Владимир Малышев, Андрей Малышев, Тимур Вайнштейн
Сценарий: Соня Карпунина, Клим Шипенко

Мировой рейтинг IMDB


В ролях: Соня Карпунина, Агния Кузнецова, Клим Шипенко, Александр Яценко, Константин Крюков, Артем Быстров, Любовь Толкалина, Александр Самойленко, Михаил Бабичев, Донатас Грудович

Описание: Надя из Питера, учится в Лондоне. Родители создают возможность жить без особых забот и хлопот. Молодой человек Женя работает в Москве в крупной компании и подает большие надежды. Одно расстройство — из-за перспективной работы Женя переехал в Москву, а Надя осталась в Лондоне. 3000 километров — слишком далеко. И Надя решает сделать Жене сюрприз — приехать в гости без предупреждения. В итоге, сюрпризы ожидают не только Женю, но и Надю.

Качество: DVDRip
Формат: AVI
Видео кодек: XviD
Аудио кодек: AC3
Видео: 720x304 (2.37:1), 25 fps, XviD build 50 ~1797 kbps avg, 0.33 bit/pixel
Аудио#1: 48 kHz, AC3 Dolby Digital, 3/2 (L,C,R,l,r) + LFE ch, ~384 kbps
Релиз от:
General
Complete name : H:киноVsjo.prosto.2012.O.DVDRip.IRONCLUB.avi
Format : AVI
Format/Info : Audio Video Interleave
File size : 1.45 GiB
Duration : 1h 34mn
Overall bit rate : 2 191 Kbps
Movie name : Vsjo.prosto.2012.O.DVDRip.IRONCLUB
Director :
Genre : Romance / Comedy
Writing application : VirtualDubMod 1.5.10.2 (build 2540/release)
Original source form/Name : Movie
Copyright :

Video
ID : 0
Format : MPEG-4 Visual
Format profile : Advanced Simple@L5
Format settings, BVOP : 1
Format settings, QPel : No
Format settings, GMC : No warppoints
Format settings, Matrix : Custom
Codec ID : XVID
Codec ID/Hint : XviD
Duration : 1h 34mn
Bit rate : 1 798 Kbps
Width : 720 pixels
Height : 304 pixels
Display aspect ratio : 2.35:1
Frame rate : 25.000 fps
Color space : YUV
Chroma subsampling : 4:2:0
Bit depth : 8 bits
Scan type : Progressive
Compression mode : Lossy
Bits/(Pixel*Frame) : 0.329
Stream size : 1.19 GiB (82%)
Writing library : XviD 1.2.1 (UTC 2008-12-04)

Audio
ID : 1
Format : AC-3
Format/Info : Audio Coding 3
Mode extension : CM (complete main)
Codec ID : 2000
Duration : 1h 34mn
Bit rate mode : Constant
Bit rate : 384 Kbps
Channel(s) : 6 channels
Channel positions : Front: L C R, Side: L R, LFE
Sampling rate : 48.0 KHz
Bit depth : 16 bits
Compression mode : Lossy
Delay relative to video : 1s 600ms
Stream size : 260 MiB (18%)
Alignment : Split accross interleaves
Interleave, duration : 40 ms (1.00 video frame)
Interleave, preload duration : 500 ms


Всё просто скачать торрент


piratbit.org



Скачать Всё просто через торрент https://pic.kartinco.top/images/1/nk9arwo3be.jpg Скачать фильм Всё просто через торрент бесплантно в хорошем качестве Описание: Надя из Питера, учится в Лондоне. Родители создают возможность жить без особых забот и хлопот. Молодой человек Женя работает в ... 7.8 10 4
Info! Золотая раздача, скачанное не засчитывается.
Торрент: Зарегистрирован [2013-01-21 17:52] · скачан: 811 раз
Статус: √ проверено
Размер: 1.45 GB
Как cкачать? Как скачать Всё просто через торрент | UTorrent

% Раздел Тема Автор DL S | L
Порно фильмы HD [ 3.21 GB ] Это Так Же Просто Как ABC Я Люблю Все Цвета Члена Во Мне 2 / It's As Simple As ABC I Like All Colors Of Cock In Me 2 [2015 All Sex Big Cocks Interracial WEB-DL 720p Оригинальный] nn99nn Скачать
1 | 0
Наши фильмы 2014 [ 1.37 GB ] Совсем не простая история [2014 SATRip] Ворон Скачать
1 | 0
Наши фильмы (DVD фильмы) [ 6.9 GB ] Всё просто [2012 DVD9] R5 voovaz Скачать
1 | 0
Разное [ 260 MB ] Всё очень просто....... [2011 All sex DVDRip] gugibugi Скачать
1 | 0
Книги [ 2 MB ] Воробьёв М.Ю. у тебя всё только просто хорошо. Закон Всего [2010 JPG TXT RUS] [2010 Обычный текст] Anonymous Скачать
1 | 3

28-11-2019 20:33  

Отключить всю рекламу на сайте

    Дорогой пользователь! Огромная просьба, поблагодарите релизера, оцените раздачу и оставьте свои комментарий, если Вы скачали Всё просто через торрент бесплатно! Внесите свою лепту в развитие PiratBit!
    Комментировать посты могут только пользователи прошедшие не сложную регистрацию
    Показать сообщения:    

    Всё просто через торрент
    Скачать бесплатно Всё просто
    Всё просто скачать торрент
    Всё просто смотреть онлайн
    Cкачать фильм Всё просто бесплатно
    Всё просто скачать торрент в хорошем качестве
    Всё просто смотреть онлайн бесплатно в хорошем качестве


    Вы не можете начинать темы
    Вы не можете отвечать на сообщения
    Вы не можете редактировать свои сообщения
    Вы не можете удалять свои сообщения
    Вы не можете голосовать в опросах
    Вы не можете прикреплять файлы к сообщениям
    Вы можете скачивать файлы