Ссылка на приватное зеркало нашего сайта всего за 1$. Внимание количество ограничено!!!

2 сезон

iTunes

iTunes

1

iTunes

iTunes

iTunes

WEBRip

iTunes

30
pack

Вам бонус

ВАЖНО

!!Акция!!

Alien_RageХит недели

RePack

Horizon Zero Dawn

ИГРА 18+

pack

RePack

jed

!!Акция!!

Alien_Rage

RePack

fifa19

RePack

Assassins Creed: Odyssey

RePack

NEED FOR SPEED™ PAYBACK

4 сезон

9 сезон

Бесстыжие 9 сезон

Все сериалы

все сериалы на PB.wtf

RePack

FAR CRY 5
  

Вакансия на жертву / Vacancy (Нимрод Антал) [2007 г., ужасы, триллер, BDRip, DUB, лицензия] piratbit.org

Вакансия на жертву через торрент piratbit.org

Размер: 1.45 GB | Добавлен: 7 лет 8 мес. назад | Торрент скачан:103 раза
Скачать  

23-01-2013 11:58 Вакансия на жертву Скачать торрент  


Вакансия на жертву / Vacancy

Год выпуска: 2007
Страна: США
Жанр: ужасы, триллер
Продолжительность: 01:25:05
Перевод: Дубляж, Лицензия

Режиссер: Нимрод Антал
Продюссер: Хэл Либерман, Стэйси Крамер, Гленн С. Гейнор
Сценарий: Марк Л. Смит

Бюджет: $19 000 000
Премьера в мире: 20 апреля 2007

Детям до 17 лет обязательно присутствие родителей
IMDb: 6.20 (54 044)
Кинопоиск: 6.556 (5756)

В ролях: Дэвид Доути, Итэн Эмбри, Кейт Бекинсейл, Кэрин Мовер, Люк Уилсон, Марк Каселла, Миган Годфри, Норм Комптон, Скотт Дж. Андерсон, Фрэнк Уэйли

Описание: Когда посреди пустынной дороги у Дэвида и Эмми сломалась машина, супруги были вынуждены остановиться на ночь в маленьком придорожном отеле. Просматривая кассеты, которые нашлись в номере, они с изумлением обнаружили, что эти кошмарные садистские фильмы сняты именно в той самой комнате, где они находятся. Вне себя от ужаса, они пытаются бежать, но скрытые камеры, установленные по всему отелю, фиксируют каждое их движение, и каждый их шаг становится известен тем, кто намерен сделать Дэвида и Эмми…

Качество: BDRip
Формат: AVI
Видео кодек: XviD
Аудио кодек: AC3
Видео: 720 x 304, 23.976 fps, 1989 kbps, 0.38 bit/pixel
Аудио#1: AC3, 48 kHz, 6 (ch), 448.00 kbps

Релиз от: nn99nn
скриншот  скриншот  скриншот  скриншот  скриншот  





General
Полное имя : D:Vakansija.Na.Zhertvu.2007.RUS.BDRip.XviD.AC3.-HQ-ViDEO.avi
Формат : AVI
Формат/Информация : Audio Video Interleave
Размер файла : 1.45 GiB
Продолжительность : 1h 25mn
Общий поток : 2 447 Kbps
Название фильма : Вакансия на жертву / Vacancy (2007)
Режиссёр : kotjack (BRRip 720p)
Программа кодирования : VirtualDubMod 1.5.10.2 (build 2540/release)
Правообладатель : HQ-ViDEO (www.hq-video.ru)
Примечание : 20.10.2009

Video
Идентификатор : 0
Формат : MPEG-4 Visual
Профиль формата : Advanced Simple@L5
Параметр BVOP формата : 1
Параметр QPel формата : No
Параметр GMC формата : No warppoints
Параметр матрицы формата : Custom
Идентификатор кодека : XVID
Идентификатор кодека/Подсказка : XviD
Продолжительность : 1h 25mn
Битрейт : 1 990 Kbps
Ширина : 720 pixels
Высота : 304 pixels
Соотношение сторон : 2.35:1
Частота кадров : 23.976 fps
Цветовое пространство : YUV
Субдискретизация насыщенности : 4:2:0
Битовая глубина : 8 bits
Тип развёртки : Progressive
Метод сжатия : Lossy
Бит/(Пиксели*Кадры) : 0.379
Размер потока : 1.18 GiB (81%)
Библиотека кодирования : XviD 1.2.1 (UTC 2008-12-04)

Audio
Идентификатор : 1
Формат : AC-3
Формат/Информация : Audio Coding 3
Расширение режима : CM (complete main)
Параметр Endianness формата : Big
Идентификатор кодека : 2000
Продолжительность : 1h 25mn
Вид битрейта : Constant
Битрейт : 448 Kbps
Каналы : 6 channels
Расположение каналов : Front: L C R, Side: L R, LFE
Частота : 48.0 KHz
Битовая глубина : 16 bits
Метод сжатия : Lossy
Размер потока : 273 MiB (18%)
Выравнивание : Split accross interleaves
Продолжительность промежутка : 42 ms (1.00 video frame)
Время предзагрузки промежутка : 500 ms

piratbit.org



Скачать Вакансия на жертву через торрент http://pic.kartinco.top/images/1/fwt6jqk9w8.jpg Скачать фильм Вакансия на жертву через торрент бесплантно в хорошем качестве Описание: Когда посреди пустынной дороги у Дэвида и Эмми сломалась машина, супруги были вынуждены остановиться на ночь в маленьком ... 5 10 1
Info! Золотая раздача, скачанное не засчитывается.
Торрент: Зарегистрирован [2013-01-23 11:58] · скачан: 103 раз
Статус: √ проверено
Размер: 1.45 GB
Как cкачать? Как скачать Вакансия на жертву через торрент | qTorrent

% Раздел Тема Автор DL S | L
Фильмы [HD 720p, 1080p] (Хороший звук DUB, MVO) [ 8.07 GB ] Вакансия на жертву / Vacancy [2007 BDRip 1080p by msltel] DUB AVO msltel Скачать
1 | 0
Фильмы [HD 720p, 1080p] (Хороший звук DUB, MVO) [ 3.04 GB ] Вакансия на жертву / Vacancy [2007 BDRip 720p by msltel] DUB AVO msltel Скачать
2 | 0
Фильмы 2006-2008 [ 1.95 GB ] Вакансия на жертву / Vacancy [2007 BDRip AVC by msltel] DUB AVO msltel Скачать
1 | 0
Фильмы 2006-2008 [ 746 MB ] Вакансия на жертву 2: Первый дубль / Vacancy 2: The First Cut [2008 DVDRip двухголосый] fisker from DREAM Paragon Скачать
1 | 0
Фильмы [HD 720p, 1080p] (Хороший звук DUB, MVO) [ 7.4 GB ] Вакансия на жертву / Vacancy [2007 / BDRip 1080p] boombee Скачать
1 | 0
Фильмы 2006-2008 [ 747 MB ] Вакансия на жертву / Vacancy [2007 HDRip] DUB + Sub -=Cherry=- Скачать
1 | 0
Фильмы [HD 720p, 1080p] (Хороший звук DUB, MVO) [ 4.76 GB ] Вакансия на жертву / Vacancy [2007 / BluRay Rip720p.] diletant Скачать
1 | 0

28-11-2019 20:33  

Отключить всю рекламу на сайте

23-01-2013 14:07 Вакансия на жертву Скачать торрент  

судя по кинопоиску, фильм исключительно для девочек. ну качну для подруги. сам смотреть небуду)) автору сенкс стопудасово (во завернул, а?))piratbit.org



    Дорогой пользователь! Огромная просьба, поблагодарите релизера, оцените раздачу и оставьте свои комментарий, если Вы скачали Вакансия на жертву через торрент бесплатно! Внесите свою лепту в развитие PiratBit!
    Комментировать посты могут только пользователи прошедшие не сложную регистрацию
    Показать сообщения:    

    Вакансия на жертву через торрент
    Скачать бесплатно Вакансия на жертву
    Вакансия на жертву скачать торрент
    Вакансия на жертву смотреть онлайн
    Cкачать фильм Вакансия на жертву бесплатно
    Вакансия на жертву скачать торрент в хорошем качестве
    Вакансия на жертву смотреть онлайн бесплатно в хорошем качестве


    Вы не можете начинать темы
    Вы не можете отвечать на сообщения
    Вы не можете редактировать свои сообщения
    Вы не можете удалять свои сообщения
    Вы не можете голосовать в опросах
    Вы не можете прикреплять файлы к сообщениям
    Вы можете скачивать файлы