2 сезон

iTunes

MVO

1

2 сезон

iTunes

iTunes

1 сезон

RePack

30

Ultimate

ВАЖНО

ИГРА 18+

pack

RePack

MK11
pack

Легкие деньги

RePack

jed

RePack

fifa19

RePack

RDR2

RePack

NEED FOR SPEED™ PAYBACK

4 сезон

9 сезон

Бесстыжие 9 сезон

Все сериалы

все сериалы на PB.wtf

RePack

FAR CRY 5

Anonymous, добрый вечер, мы не успеваем собрать деньги на оплату серверов за декабрь и январь, помогите нам пожалуйста в это трудное время. В качестве благодарности мы отключим Вам всю рекламу на сайте (укажите свой ник в строку Ваше имя)!

×
  
Magnet ссылка

Джунгли (Александр Войтинский) [2012 г., мелодрама, комедия, приключения, BDRip, Оригинал,лицензия] piratbit.org

Джунгли через торрент piratbit.org

Размер: 1.37 GB | Добавлен: 7 лет 11 мес. назад | Торрент скачан:1023 раза
Скачать  

27-01-2013 03:33 Джунгли Скачать торрент  

Джунгли

Год выпуска: 2012
Страна: Россия
Жанр: мелодрама, комедия, приключения
Перевод: Оригинал [лицензия]
Тип релиза: Лицензия

Режиссер: Александр Войтинский
Продюссер: Сергей Сельянов, Александр Войтинский, Михаил Врубель
Сценарий: Алексей Федоров, Олег Маловичко, caxap.1kg

Мировой рейтинг IMDB 5.00 (222)


В ролях: Сергей Светлаков, Вера Брежнева, Александр Макогон, Александр Половцев, Марина Дюжева, Михаил Ефремов, Ирина Медведева, Ампорн Панкраток, Соонтри Кхумжулла, Сомсак Падуга

Описание: У Сергея и Марины в семейной жизни наступил кризис. Во время одной из ссор, они решают поехать в экзотическое путешествие. Всю дорогу между супругами не утихают ссоры, которые в конце концов приводят к тому, что они оказываются на необитаемом острове, затерянном в океане. Вместо того чтобы вместе бороться за выживание, наши герои продолжают выяснять отношения, постепенно переходя к настоящим боевым действиям. В довершение несчастий оказывается, что остров населен племенем воинствующих туземцев.

Качество: BDRip
Формат: AVI
Видео кодек: XviD
Аудио кодек: AC3
Видео: 720x304 (2.37:1), 23.976 fps, XviD build 50 ~1890 kbps avg, 0.36 bit/pixel
Аудио#1: 48 kHz, AC3 Dolby Digital, 3/2 (L,C,R,l,r) + LFE ch, ~448 kbps
Релиз от:
General
Complete name : H:киноDzhungli.2012.O.BDRip.IRONCLUB.avi
Format : AVI
Format/Info : Audio Video Interleave
File size : 1.37 GiB
Duration : 1h 23mn
Overall bit rate : 2 348 Kbps
Movie name : Dzhungli.2012.O.BDRip.IRONCLUB
Director :
Genre : Comedy / Romance
Writing application : VirtualDubMod 1.5.10.3 | www.virtualdub-fr.org || (build 2550/release)
Original source form/Name : Movie
Copyright :

Video
ID : 0
Format : MPEG-4 Visual
Format profile : Advanced Simple@L5
Format settings, BVOP : 1
Format settings, QPel : No
Format settings, GMC : No warppoints
Format settings, Matrix : Custom
Codec ID : XVID
Codec ID/Hint : XviD
Duration : 1h 23mn
Bit rate : 1 891 Kbps
Width : 720 pixels
Height : 304 pixels
Display aspect ratio : 2.35:1
Frame rate : 23.976 fps
Color space : YUV
Chroma subsampling : 4:2:0
Bit depth : 8 bits
Scan type : Progressive
Compression mode : Lossy
Bits/(Pixel*Frame) : 0.360
Stream size : 1.10 GiB (81%)
Writing library : XviD 1.2.1 (UTC 2008-12-04)

Audio
ID : 1
Format : AC-3
Format/Info : Audio Coding 3
Mode extension : CM (complete main)
Codec ID : 2000
Duration : 1h 23mn
Bit rate mode : Constant
Bit rate : 448 Kbps
Channel(s) : 6 channels
Channel positions : Front: L C R, Side: L R, LFE
Sampling rate : 48.0 KHz
Bit depth : 16 bits
Compression mode : Lossy
Stream size : 267 MiB (19%)
Alignment : Split accross interleaves
Interleave, duration : 42 ms (1.00 video frame)
Interleave, preload duration : 500 ms


Джунгли скачать торрент


piratbit.org



Скачать Джунгли через торрент http://pic.kartinco.top/images/1/r3o2ixu1jz.png Скачать фильм Джунгли через торрент бесплантно в хорошем качестве Описание: У Сергея и Марины в семейной жизни наступил кризис. Во время одной из ссор, они решают поехать в экзотическое путешествие. Всю ... 7.8 10 12
Info! Золотая раздача, скачанное не засчитывается.
Торрент: Зарегистрирован [2013-01-27 03:33] · скачан: 1 023 раз
Статус: √ проверено
Размер: 1.37 GB
Как cкачать? Как скачать Джунгли через торрент | UTorrent

% Раздел Тема Автор DL S | L
Фильмы [HD 720p, 1080p] (Хороший звук DUB, MVO) [ 11.82 GB ] Книга джунглей / The Jungle Book [2016 BDRip 1080p [] smaster Скачать
1 | 0
Фильмы 2017 [DVDrip, WEB-DLRip, HDrip] (DUB, MVO) [ 1.46 GB ] Джунгли / Jungle [2017 BDRip] DUB [ BD RUS ] bober100 Скачать
1 | 0
Фильмы (HD 720p, 1080p) (48-60 fps) [ 4.07 GB ] Джунгли / Jungle [2017 BDRip-HEVC 720p / 60 FPS Оригинал] Tiberiumsun69 Скачать
1 | 0
Фильмы [HD 720p, 1080p] (Хороший звук DUB, MVO) [ 7.97 GB ] Джунгли / Jungle [2017 BDRip 1080p] DUB [] +AVO [М.Яроцкий] bober100 Скачать
1 | 0
Фильмы (Blu-ray, BD-Remux, HDDVD) [ 23.23 GB ] Джунгли / Jungle [2017 Blu-ray 1080p] DUB [Rus Transfer] [] bober100 Скачать
1 | 0
Фильмы 2017 [DVDrip, WEB-DLRip, HDrip] (DUB, MVO) [ 2.18 GB ] Джунгли / Jungle [2017 BDRip] - [] Twi7ter Скачать
2 | 0
Фильмы 2017 [DVDrip, WEB-DLRip, HDrip] (DUB, MVO) [ 2.77 GB ] Джунгли / Jungle [2017 BDRip-AVC] DUB [] +AVO [М.Яроцкий] bober100 Скачать
1 | 0

28-11-2019 20:33  

Отключить всю рекламу на сайте

29-01-2013 08:34 Джунгли Скачать торрент  

посмотрим, в рекламе вроде что-то прикольное было, спасибоpiratbit.org



    Дорогой пользователь! Огромная просьба, поблагодарите релизера, оцените раздачу и оставьте свои комментарий, если Вы скачали Джунгли через торрент бесплатно! Внесите свою лепту в развитие PiratBit!
    Комментировать посты могут только пользователи прошедшие не сложную регистрацию
    Показать сообщения:    

    Джунгли через торрент
    Скачать бесплатно Джунгли
    Джунгли скачать торрент
    Джунгли смотреть онлайн
    Cкачать фильм Джунгли бесплатно
    Джунгли скачать торрент в хорошем качестве
    Джунгли смотреть онлайн бесплатно в хорошем качестве


    Вы не можете начинать темы
    Вы не можете отвечать на сообщения
    Вы не можете редактировать свои сообщения
    Вы не можете удалять свои сообщения
    Вы не можете голосовать в опросах
    Вы не можете прикреплять файлы к сообщениям
    Вы можете скачивать файлы