1 сезон

1 сезон

iTunes

1

КиноПоиск HD

Кинопоиск HD

iTunes

13

1 сезон

RePack

30

Deluxe

ВАЖНО

ИГРА 18+

pack

RePack

MK11
pack

Легкие деньги

RePack

jed

RePack

fifa19

RePack

RDR2

RePack

NEED FOR SPEED™ PAYBACK

4 сезон

9 сезон

Бесстыжие 9 сезон

Все сериалы

все сериалы на PB.wtf

RePack

FAR CRY 5
  
Magnet ссылка

Изгнанные дьяволом / Дом 1000 трупов 2 / The Devil's Rejects [Unrated] (Роб Зомби) [2005 г., ужасы, триллер, HDRip, DUB] piratbit.org

Изгнанные дьяволом через торрент piratbit.org

Размер: 2.05 GB | Добавлен: 8 лет 3 мес. назад | Торрент скачан:122 раза
Скачать  

27-01-2013 16:54 Изгнанные дьяволом Скачать торрент  

Изгнанные дьяволом / Дом 1000 трупов 2 / The Devil's Rejects [Unrated]

Год выпуска: 2005
Страна: США
Жанр: ужасы, триллер
Продолжительность: 01:50:53
Перевод: Дубляж

Режиссер: Роб Зомби
Продюссер: Майк Эллиот, Энди Гулд, Марко Мелиц
Сценарий: Роб Зомби

Премьера в мире: 11 мая 2005



В ролях: Сид Хэйг, Билл Моусли, Шери Мун Зомби, Уильям Форсайт, Кен Фори, Мэттью МакГрори, Лесли Истербрук, Джеффри Льюис, Присцилла Барнс, Дейв Шеридан, Александр Клюквин, Вячеслав Баранов, Любовь Германова, Виктор Бохон, Андрей Ярославцев

Описание: Твердо намеренный отомстить за смерть брата, шериф ведет собственное расследование. Он выслеживает семью Фаерфлай и нанимает жестоких убийц — «неуловимую парочку», чтобы расправиться с негодяями. Самые лютые и изощренные пытки меркнут в сравнении с той мясорубкой, которая ждет врагов шерифа...



Качество: HDRip
Формат: AVI
Видео кодек: XviD
Аудио кодек: AC3
Видео: MPEG4, XviD, 704x400 (16:9), 23.976 fps, 2 191 Kbps (0.325 bit/pixel)
Аудио: AC-3, 48.0 KHz, 6 ch, 448 Kbps, CBRСэмпл / Трейлер
Формат : AVI
Формат/Информация : Audio Video Interleave
Профиль формата : OpenDML
Размер файла : 2,05 Гбайт
Продолжительность : 1 ч. 50 м.
Общий поток : 2652 Кбит/сек
Название фильма : Izgnannye dyavolom
Программа кодирования : VirtualDubMod 1.5.10.3 | www.virtualdub-fr.org || (build 2550/release)
Примечание : Rip от кэп

Видео
Идентификатор : 0
Формат : MPEG-4 Visual
Профиль формата : Advanced Simple@L5
Параметр BVOP формата : 1
Параметр QPel формата : Нет
Параметр GMC формата : Без точки перехода
Параметр матрицы формата : Default (MPEG)
Идентификатор кодека : XVID
Идентификатор кодека/Подсказка : XviD
Продолжительность : 1 ч. 50 м.
Битрейт : 2191 Кбит/сек
Ширина : 704 пикселя
Высота : 400 пикселей
Соотношение сторон : 16:9
Частота кадров : 23,976 кадра/сек
Цветовое пространство : YUV
Субдискретизация насыщенности : 4:2:0
Битовая глубина : 8 бит
Тип развёртки : Прогрессивная
Метод сжатия : С потерями
Бит/(Пиксели*Кадры) : 0.325
Размер потока : 1,70 Гбайт (83%)
Библиотека кодирования : XviD 1.2.1 (UTC 2008-12-04)

Аудио
Идентификатор : 1
Формат : AC-3
Формат/Информация : Audio Coding 3
Расширение режима : CM (complete main)
Параметр Endianness формата : Big
Идентификатор кодека : 2000
Продолжительность : 1 ч. 50 м.
Вид битрейта : Постоянный
Битрейт : 448 Кбит/сек
Каналы : 6 каналов
Расположение каналов : Front: L C R, Side: L R, LFE
Частота : 48,0 КГц
Битовая глубина : 16 бит
Метод сжатия : С потерями
Размер потока : 355 Мбайт (17%)
Выравнивание : Разделение по промежуткам
Продолжительность промежутка : 42 мс. (1,00 видеокадр)
Время предзагрузки промежутка : 500 мс.
[th]https://pic1.kartinco.top/images/111/jeajeuh4xl.bmp[/th] [th]https://pic1.kartinco.top/images/111/bt6pqlvflm.bmp[/th] [th]https://pic1.kartinco.top/images/111/nyumpec1of.bmp[/th] [th]https://pic1.kartinco.top/images/111/wpd9zv7vvk.bmp[/th] [th]https://pic1.kartinco.top/images/111/tx4sqvhgvz.bmp[/th] [th]https://pic1.kartinco.top/images/111/3hqedesxe4.bmp[/th]piratbit.org



Скачать Изгнанные дьяволом через торрент http://i6.imageban.ru/out/2013/01/27/a05e1f005940d81f2e544bd43ce8dda5.png Скачать фильм Изгнанные дьяволом через торрент бесплантно в хорошем качестве Описание: Твердо намеренный отомстить за смерть брата, шериф ведет собственное расследование. Он выслеживает семью Фаерфлай и нанимает ... 5 10 1
Info! Золотая раздача, скачанное не засчитывается.
Торрент: Зарегистрирован [2013-01-27 16:54] · скачан: 122 раз
Статус: √ проверено
Размер: 2.05 GB
Как cкачать? Как скачать Изгнанные дьяволом через торрент | UTorrent

28-11-2019 20:33  

Отключить всю рекламу на сайте

27-01-2013 17:20 Изгнанные дьяволом Скачать торрент  

2ой скрин зачетный piratbit.org



27-01-2013 17:40 Изгнанные дьяволом Скачать торрент  

vaha79 писал(а):

2ой скрин зачетный

+1 piratbit.org



30-01-2013 04:50 Изгнанные дьяволом Скачать торрент  

vaha79 писал(а):

2ой скрин зачетный

Но подруга не зачет piratbit.org



    Дорогой пользователь! Огромная просьба, поблагодарите релизера, оцените раздачу и оставьте свои комментарий, если Вы скачали Изгнанные дьяволом через торрент бесплатно! Внесите свою лепту в развитие PiratBit!
    Комментировать посты могут только пользователи прошедшие не сложную регистрацию
    Показать сообщения:    

    Изгнанные дьяволом через торрент
    Скачать бесплатно Изгнанные дьяволом
    Изгнанные дьяволом скачать торрент
    Изгнанные дьяволом смотреть онлайн
    Cкачать фильм Изгнанные дьяволом бесплатно
    Изгнанные дьяволом скачать торрент в хорошем качестве
    Изгнанные дьяволом смотреть онлайн бесплатно в хорошем качестве


    Вы не можете начинать темы
    Вы не можете отвечать на сообщения
    Вы не можете редактировать свои сообщения
    Вы не можете удалять свои сообщения
    Вы не можете голосовать в опросах
    Вы не можете прикреплять файлы к сообщениям
    Вы можете скачивать файлы