Marvel's Avengers Deluxe Edition (супер цена) 159р. Внимание количество ограничено!!!

2 сезон

iTunes

iTunes

1

iTunes

iTunes

iTunes

WEBRip

iTunes

30
pack

Новость дня

ВАЖНО

!!Акция!!

Alien_RageХит недели

RePack

Horizon Zero Dawn

ИГРА 18+

pack

RePack

jed

!!Акция!!

Alien_Rage

RePack

fifa19

RePack

Assassins Creed: Odyssey

RePack

NEED FOR SPEED™ PAYBACK

4 сезон

9 сезон

Бесстыжие 9 сезон

Все сериалы

все сериалы на PB.wtf

RePack

FAR CRY 5
  

Книга откровений / The Book of Revelation (Ана Коккинос) [2006 г., триллер, мелодрама, детектив, DVDRip, Профессиональный двухголосый] piratbit.org

Книга откровений через торрент piratbit.org

Размер: 2.18 GB | Добавлен: 7 лет 7 мес. назад | Торрент скачан:100 раз
Скачать  

29-01-2013 06:48 Книга откровений Скачать торрент  

Книга откровений / The Book of Revelation

Год выпуска: 2006
Страна: Австралия
Жанр: триллер, мелодрама, детектив
Продолжительность: 01:53:12
Перевод: Профессиональный двухголосый
Субтитры: Отсутствуют

Режиссер: Ана Коккинос
Продюссер: Аль Кларк, Грэхэм Бегг, Джэми Кармайкл
Сценарий: Ана Коккинос, Эндрю Бовелл, Руперт Томсон

Мировой рейтинг IMDB 5.40 (913)


В ролях: Том Лонг, Грета Скакки, Колин Фрилз, Дебора Мэйлман, Зои Койл, Надин Гарнер, Оливия Пиго, Ана Мария Бело, Белинда МакКлори, Сибилла Бадд

Описание: Дэниел — молодой и успешный танцор, карьера которого складывается как нельзя лучше. Однажды во время репетиции нового шоу Дэниел выходит на улицу за сигаретами и исчезает... На 12 дней. Возвращается домой он так же внезапно, но другим, совершенно разбитым человеком. Выясняется, что Дэниел стал жертвой похищения — пленником трех женщин, скрывающих свои лица под масками.Придя в себя в незнакомом доме, прикованный к полу цепями и наручниками, он становится жертвой изощренных сексуальных утех своих похитительниц. Вырвавшись на свободу и едва не лишившись рассудка, он решает во что бы то ни стало найти этих женщин и свести с ними счеты.

Качество: DVDRip
Формат: AVI
Видео кодек: XviD
Аудио кодек: AC3
Видео: 720x400 (1.80:1), 25 fps, XviD build 50 ~2369 kbps avg, 0.33 bit/pixel
Аудио#1: 48 kHz, AC3 Dolby Digital, 2/0 (L,R) ch, ~384 kbps
скриншот   скриншот   скриншот   скриншот   скриншот   скриншот  

Общее
Полное имя : F:ЗакачкиKniga.Otkroveniy.2006.DVDRip.avi
Формат : AVI
Формат/Информация : Audio Video Interleave
Профиль формата : OpenDML
Размер файла : 2,18 Гбайт
Продолжительность : 1 ч. 53 м.
Общий поток : 2760 Кбит/сек
Программа кодирования : VirtualDubMod 1.5.10.3 | www.virtualdub-fr.org || (build 2550/release)
Библиотека кодирования : VirtualDubMod build 2550/release

Видео
Идентификатор : 0
Формат : MPEG-4 Visual
Профиль формата : Advanced Simple@L5
Параметр BVOP формата : 2
Параметр QPel формата : Нет
Параметр GMC формата : Без точки перехода
Параметр матрицы формата : Default (H.263)
Идентификатор кодека : XVID
Идентификатор кодека/Подсказка : XviD
Продолжительность : 1 ч. 53 м.
Битрейт : 2364 Кбит/сек
Ширина : 720 пикселей
Высота : 400 пикселей
Соотношение сторон : 16:9
Частота кадров : 25,000 кадров/сек
Цветовое пространство : YUV
Субдискретизация насыщенности : 4:2:0
Битовая глубина : 8 бит
Тип развёртки : Прогрессивная
Метод сжатия : С потерями
Бит/(Пиксели*Кадры) : 0.328
Размер потока : 1,87 Гбайт (86%)
Библиотека кодирования : XviD 1.2.1 (UTC 2008-12-04)

Аудио
Идентификатор : 1
Формат : AC-3
Формат/Информация : Audio Coding 3
Расширение режима : CM (complete main)
Идентификатор кодека : 2000
Продолжительность : 1 ч. 53 м.
Вид битрейта : Постоянный
Битрейт : 384 Кбит/сек
Каналы : 2 канала
Расположение каналов : Front: L R
Частота : 48,0 КГц
Битовая глубина : 16 бит
Метод сжатия : С потерями
Размер потока : 311 Мбайт (14%)
Выравнивание : Разделение по промежуткам
Продолжительность промежутка : 40 мс. (1,00 видеокадр)
Время предзагрузки промежутка : 500 мс.


Книга откровений скачать торрент


piratbit.org



Скачать Книга откровений через торрент http://i53.fastpic.ru/big/2013/0128/8b/225a1d774513631f3e48ef98a08a7f8b.jpg Скачать фильм Книга откровений через торрент бесплантно в хорошем качестве Описание: Дэниел — молодой и успешный танцор, карьера которого складывается как нельзя лучше. Однажды во время репетиции нового шоу Дэниел ... 10 10 1
Info! Золотая раздача, скачанное не засчитывается.
Торрент: Зарегистрирован [2013-01-29 06:48] · скачан: 100 раз
Статус: √ проверено
Размер: 2.18 GB
Как cкачать? Как скачать Книга откровений через торрент | qTorrent

% Раздел Тема Автор DL S | L
Фильмы 2006-2008 [ 2.05 GB ] Книга откровений / Book of Revelation The [2006 ... DVDRip] MoNaZ Скачать
1 | 0

28-11-2019 20:33  

Отключить всю рекламу на сайте

    Дорогой пользователь! Огромная просьба, поблагодарите релизера, оцените раздачу и оставьте свои комментарий, если Вы скачали Книга откровений через торрент бесплатно! Внесите свою лепту в развитие PiratBit!
    Комментировать посты могут только пользователи прошедшие не сложную регистрацию
    Показать сообщения:    

    Книга откровений через торрент
    Скачать бесплатно Книга откровений
    Книга откровений скачать торрент
    Книга откровений смотреть онлайн
    Cкачать фильм Книга откровений бесплатно
    Книга откровений скачать торрент в хорошем качестве
    Книга откровений смотреть онлайн бесплатно в хорошем качестве


    Вы не можете начинать темы
    Вы не можете отвечать на сообщения
    Вы не можете редактировать свои сообщения
    Вы не можете удалять свои сообщения
    Вы не можете голосовать в опросах
    Вы не можете прикреплять файлы к сообщениям
    Вы можете скачивать файлы