2 сезон

iTunes

MVO

1

2 сезон

iTunes

iTunes

1 сезон

RePack

30

Новинка

ВАЖНО

ИГРА 18+

pack

RePack

MK11
pack

Легкие деньги

RePack

jed

RePack

fifa19

RePack

RDR2

RePack

NEED FOR SPEED™ PAYBACK

4 сезон

9 сезон

Бесстыжие 9 сезон

Все сериалы

все сериалы на PB.wtf

RePack

FAR CRY 5

Anonymous, доброй ночи, мы не успеваем собрать деньги на оплату серверов за декабрь и январь, помогите нам пожалуйста в это трудное время. В качестве благодарности мы отключим Вам всю рекламу на сайте (укажите свой ник в строку Ваше имя)!

×
  
Magnet ссылка

Снежная королева (Максим Свешников, Владлен Барбэ) [2012 г., мультфильм, фэнтези, приключения, семейный, DVDRip, Оригинал]лицензия piratbit.org

Снежная королева через торрент piratbit.org

Размер: 1.37 GB | Добавлен: 7 лет 11 мес. назад | Торрент скачан:2571 раз
Скачать  

29-01-2013 23:57 Снежная королева Скачать торрент  

Год выпуска: 2012
Страна: Россия
Жанр: мультфильм, фэнтези, приключения, семейный
Продолжительность: 01:12:52
Перевод: Оригинал
Тип релиза: Лицензия

Режиссер: Максим Свешников, Владлен Барбэ

В ролях: Иван Охлобыстин, Нюша Шурочкина, Анна Ардова, Рамиля Искандер, Дмитрий Нагиев, Лиза Арзамасова, Галина Тюнина, Юрий Стоянов, Людмила Артемьева, Михаил Тихонов

Описание: В стремлении сотворить Новый мир — холодный и практичный, где четкость линий призвана заменить эмоции, а северный ветер должен остудить людские души, Снежная Королева избавляется от всех представителей творческих профессий. Маленькой и смелой Герде, отправившейся в опасное путешествие, чтобы спасти своего брата Кая, предстоит столкнуться с этим холодным миром Снежной Королевы. Преодолевая все сложности и преграды на пути к своей цели, Герда не только обретает семью, но и веру в себя, находит поддержку новых друзей

Качество: DVDRip
Формат: AVI
Видео кодек: XviD
Аудио кодек: AC3
Видео: 720x400 (1.80:1), 25 fps, XviD build 50 ~2228 kbps avg, 0.31 bit/pixel
Аудио#1: 48 kHz, AC3 Dolby Digital, 3/2 (L,C,R,l,r) + LFE ch, ~448 kbps

Общее
Полное имя : D:Снежная королева 2012.avi
Формат : AVI
Формат/Информация : Audio Video Interleave
Размер файла : 1,37 Гбайт
Продолжительность : 1 ч. 12 м.
Общий поток : 2686 Кбит/сек
Программа кодирования : VirtualDubMod 1.5.10.2 (build 2542/release)
Библиотека кодирования : VirtualDubMod build 2542/release

Видео
Идентификатор : 0
Формат : MPEG-4 Visual
Профиль формата : Advanced Simple@L5
Параметр BVOP формата : 2
Параметр QPel формата : Нет
Параметр GMC формата : Без точки перехода
Параметр матрицы формата : Default (MPEG)
Идентификатор кодека : XVID
Идентификатор кодека/Подсказка : XviD
Продолжительность : 1 ч. 12 м.
Битрейт : 2228 Кбит/сек
Ширина : 720 пикселей
Высота : 400 пикселей
Соотношение сторон : 16:9
Частота кадров : 25,000 кадров/сек
Цветовое пространство : YUV
Субдискретизация насыщенности : 4:2:0
Битовая глубина : 8 бит
Тип развёртки : Прогрессивная
Метод сжатия : С потерями
Бит/(Пиксели*Кадры) : 0.309
Размер потока : 1,14 Гбайт (83%)
Библиотека кодирования : XviD 1.2.1 (UTC 2008-12-04)

Аудио
Идентификатор : 1
Формат : AC-3
Формат/Информация : Audio Coding 3
Расширение режима : CM (complete main)
Параметр Endianness формата : Big
Идентификатор кодека : 2000
Продолжительность : 1 ч. 12 м.
Вид битрейта : Постоянный
Битрейт : 448 Кбит/сек
Каналы : 6 каналов
Расположение каналов : Front: L C R, Side: L R, LFE
Частота : 48,0 КГц
Битовая глубина : 16 бит
Метод сжатия : С потерями
Размер потока : 234 Мбайт (17%)
Выравнивание : Разделение по промежуткам
Продолжительность промежутка : 40 мс. (1,00 видеокадр)
Время предзагрузки промежутка : 500 мс.

piratbit.org



Скачать Снежная королева через торрент http://i52.fastpic.ru/big/2013/0130/8e/300b64619aaf5e0ddd50d118c0d3588e.jpg Скачать фильм Снежная королева через торрент бесплантно в хорошем качестве Описание: В стремлении сотворить Новый мир — холодный и практичный, где четкость линий призвана заменить эмоции, а северный ветер должен ... 9.1 10 8
Info! Золотая раздача, скачанное не засчитывается.
Торрент: Зарегистрирован [2013-01-29 23:57] · скачан: 2 571 раз
Статус: √ проверено
Размер: 1.37 GB
Как cкачать? Как скачать Снежная королева через торрент | UTorrent

% Раздел Тема Автор DL S | L
Наши мультфильмы [ 1.46 GB ] Снежная Королева: Зазеркалье [2018 мультфильм BDRip] Русский [] Twi7ter Скачать
11 | 0
3D Мультфильмы [ 6.28 GB ] Снежная Королева: Зазеркалье 3D [2018 мультфильм BDRip 1080p] [Half OverUnder] [GER Transfer / ] bober100 Скачать
1 | 0
Наши мультфильмы [ 1.58 GB ] Снежная Королева: Зазеркалье [2018 мультфильм BDRip-AVC] - ExKinoRay Enigma2010 Скачать
2 | 0
Наши Мультфильмы (HD, WEB-DL 720p, 1080p) [ 14.2 GB ] Снежная Королева: Зазеркалье [2018 мультфильм BD Remux 1080p] [GER Transfer / ] bober100 Скачать
1 | 0
Наши мультфильмы [ 1.46 GB ] Снежная Королева: Зазеркалье [2018 мультфильм BDRip] [] bober100 Скачать
1 | 0
3D Мультфильмы [ 8.63 GB ] Снежная Королева: Зазеркалье в 3Д / 3D [2018 мультфильм фэнтез BDRip 1080p] OverUnder / Вертикальная стереопара serega768 Скачать
1 | 0
Наши мультфильмы [ 745 MB ] Снежная Королева: Зазеркалье [2018 мультфильм BDRip] [GER Transfer / ] bober100 Скачать
1 | 0


Последний раз редактировалось: Зайчина (2013-01-30 00:10), всего редактировалось 2 раз(а)

28-11-2019 20:33  

Отключить всю рекламу на сайте

30-01-2013 06:16 Снежная королева Скачать торрент  

Спасибо! Давненько ждал)piratbit.org



30-01-2013 06:20 Снежная королева Скачать торрент  

кто скачал отпишитесь стоит смотреть или как???piratbit.org



30-01-2013 07:11 Снежная королева Скачать торрент  

Rasai писал(а):

кто скачал отпишитесь стоит смотреть или как???

стоит. особенно если лет 5-10.
в кино не пошёл - не понравился уровень анимации, причём вина явно НЕ аниматоров и персонажников, т.к. их уровень я знаю. как обычно - "быстрее, к НГ успеть надо".
в общем, пиксар снимает по 2-3 года один мультфильм - наши менагеры выдают по 2-3 в год полнометражных. причём готовы платить в 10 раз больше китайсам, но платить столько же своим - ни-ни.piratbit.org



30-01-2013 16:09 Снежная королева Скачать торрент  

sergunka писал(а):

Rasai писал(а):

кто скачал отпишитесь стоит смотреть или как???

стоит. особенно если лет 5-10.
в кино не пошёл - не понравился уровень анимации, причём вина явно НЕ аниматоров и персонажников, т.к. их уровень я знаю. как обычно - "быстрее, к НГ успеть надо".
в общем, пиксар снимает по 2-3 года один мультфильм - наши менагеры выдают по 2-3 в год полнометражных. причём готовы платить в 10 раз больше китайсам, но платить столько же своим - ни-ни.

+1 к каждому слову. Озвучка и персонажи выполнены отлично. Чувствуется большой потенциал, но... погоня за "длинным рублём" обгадила всю идею...piratbit.org



02-02-2013 10:14 Снежная королева Скачать торрент  

Хороший мультфильм, спасибо за раздачу!piratbit.org



    Дорогой пользователь! Огромная просьба, поблагодарите релизера, оцените раздачу и оставьте свои комментарий, если Вы скачали Снежная королева через торрент бесплатно! Внесите свою лепту в развитие PiratBit!
    Комментировать посты могут только пользователи прошедшие не сложную регистрацию
    Показать сообщения:    

    Снежная королева через торрент
    Скачать бесплатно Снежная королева
    Снежная королева скачать торрент
    Снежная королева смотреть онлайн
    Cкачать фильм Снежная королева бесплатно
    Снежная королева скачать торрент в хорошем качестве
    Снежная королева смотреть онлайн бесплатно в хорошем качестве


    Вы не можете начинать темы
    Вы не можете отвечать на сообщения
    Вы не можете редактировать свои сообщения
    Вы не можете удалять свои сообщения
    Вы не можете голосовать в опросах
    Вы не можете прикреплять файлы к сообщениям
    Вы можете скачивать файлы