1 сезон

3 сезон

iTunes

1

iTunes

MVO

iTunes

13

1 сезон

RePack

30

Deluxe

pack

Лицензия

ВАЖНО

ИГРА 18+

pack

RePack

MK11

RePack

jed

RePack

fifa19

RePack

RDR2

RePack

NEED FOR SPEED™ PAYBACK

4 сезон

9 сезон

Бесстыжие 9 сезон

Все сериалы

все сериалы на PB.wtf

RePack

FAR CRY 5

Anonymous, доброй ночи, мы катастрофически не успеваем собрать деньги на оплату серверов, помогите нам пожалуйста 5,10,15р., для нас важна любая помощь . В качестве благодарности мы отключим Вам всю рекламу на сайте (укажите свой ник в строку Ваше имя)!

×
  
Magnet ссылка

Живой товар / G.O.D (Дин Русу) [2001 г., боевик, триллер, криминал, DVDRip, MVO] piratbit.org

Живой товар через торрент piratbit.org

Размер: 1.45 GB | Добавлен: 8 лет 5 мес. назад | Торрент скачан:39 раз
Скачать  

03-02-2013 08:05 Живой товар Скачать торрент  

Живой товар / G.O.D.

Год выпуска: 2001
Страна: Канада
Жанр: боевик, триллер, криминал
Продолжительность: 01:30:18
Перевод: Профессиональный многоголосый
Субтитры: Отсутствуют

Режиссер: Дин Русу
Продюссер: Брайан Камерон, Джалал Мерхи, Одри Несбитт
Сценарий: Дин Русу

Мировой рейтинг IMDB 4.30 (101)


В ролях: Джалал Мерхи, Оливье Грюнер, Дэвид Кэрредин, Жюстин Пристли, Джош Баркер, Лиза Кросато, Даррен Шахлави, Эрика Кэрролл, Stuart Nemtin, Морин Кьюсак

Описание: Обычный рабочий день закончился для охранника банка Рэя Стэнтона трагически: в завязавшейся перестрелке с неизвестными грабителями погибла его молодая жена. Стремясь замять скандал, Рэя увольняют, и чтобы не умереть с голоду, ему приходится открыть службу доставки.Живя на гроши, Рэй, не раздумывая, берется выполнить просьбу респектабельного торговца произведениями искусства Эдриэна Камински перевезти в другой город ценный груз.Однако по пути выясняется, что вместо статуи в ящике замурована девушка, очередная добыча торговцев живым товаром. Освободив Лизу, Рэй с ее помощью хочет наказать Камински и его банду. Бывший охранник готов к решительным действиям, но он не подозревает, что судьба вновь свела его с убийцами его жены...

Качество: DVDRip
Формат: AVI
Видео кодек: XviD
Аудио кодек: AC3
Видео: 720x544 (1.32:1), 25 fps, XviD build 50 ~1909 kbps avg, 0.20 bit/pixel
Аудио#1: 48 kHz, AC3 Dolby Digital, 3/2 (L,C,R,l,r) + LFE ch, ~384 kbps
скриншот   скриншот   скриншот   скриншот   скриншот   скриншот   скриншот   скриншот  

Общее
Полное имя : F:ЗакачкиZhivoy.Tovar.2001.DVDRip.avi
Формат : AVI
Формат/Информация : Audio Video Interleave
Размер файла : 1,45 Гбайт
Продолжительность : 1 ч. 30 м.
Общий поток : 2303 Кбит/сек
Программа кодирования : VirtualDubMod 1.5.10.3 | www.virtualdub-fr.org || (build 2550/release)
Библиотека кодирования : VirtualDubMod build 2550/release

Видео
Идентификатор : 0
Формат : MPEG-4 Visual
Профиль формата : Advanced Simple@L5
Параметр BVOP формата : 2
Параметр QPel формата : Нет
Параметр GMC формата : Без точки перехода
Параметр матрицы формата : Default (H.263)
Идентификатор кодека : XVID
Идентификатор кодека/Подсказка : XviD
Продолжительность : 1 ч. 30 м.
Битрейт : 1910 Кбит/сек
Ширина : 720 пикселей
Высота : 544 пикселя
Соотношение сторон : 4:3
Частота кадров : 25,000 кадров/сек
Цветовое пространство : YUV
Субдискретизация насыщенности : 4:2:0
Битовая глубина : 8 бит
Тип развёртки : Прогрессивная
Метод сжатия : С потерями
Бит/(Пиксели*Кадры) : 0.195
Размер потока : 1,20 Гбайт (83%)
Библиотека кодирования : XviD 1.2.1 (UTC 2008-12-04)

Аудио
Идентификатор : 1
Формат : AC-3
Формат/Информация : Audio Coding 3
Расширение режима : CM (complete main)
Идентификатор кодека : 2000
Продолжительность : 1 ч. 30 м.
Вид битрейта : Постоянный
Битрейт : 384 Кбит/сек
Каналы : 6 каналов
Расположение каналов : Front: L C R, Side: L R, LFE
Частота : 48,0 КГц
Битовая глубина : 16 бит
Метод сжатия : С потерями
Размер потока : 248 Мбайт (17%)
Выравнивание : Разделение по промежуткам
Продолжительность промежутка : 40 мс. (1,00 видеокадр)
Время предзагрузки промежутка : 500 мс.


Живой товар скачать торрент


piratbit.org



Скачать Живой товар через торрент http://i52.fastpic.ru/big/2013/0202/40/78d5271f723baa5dc452150cbee46540.jpg Скачать фильм Живой товар через торрент бесплантно в хорошем качестве Описание: Обычный рабочий день закончился для охранника банка Рэя Стэнтона трагически: в завязавшейся перестрелке с неизвестными ... 9.7 10 3
Info! Золотая раздача, скачанное не засчитывается.
Торрент: Зарегистрирован [2013-02-03 08:05] · скачан: 39 раз
Статус: √ проверено
Размер: 1.45 GB
Как cкачать? Как скачать Живой товар через торрент | UTorrent

28-11-2019 20:33  

Отключить всю рекламу на сайте

03-02-2013 09:35 Живой товар Скачать торрент  

Кэрэдайн уже кэрЕдиным стал...
это как в своё время пытались объяснить, что "правильно по-аглицки - Стэллоун", хотя Слай родился итальянцем и всегда был итальянцем, и у его предков по отцу фамилия была Сталлонеpiratbit.org



    Дорогой пользователь! Огромная просьба, поблагодарите релизера, оцените раздачу и оставьте свои комментарий, если Вы скачали Живой товар через торрент бесплатно! Внесите свою лепту в развитие PiratBit!
    Комментировать посты могут только пользователи прошедшие не сложную регистрацию
    Показать сообщения:    

    Живой товар через торрент
    Скачать бесплатно Живой товар
    Живой товар скачать торрент
    Живой товар смотреть онлайн
    Cкачать фильм Живой товар бесплатно
    Живой товар скачать торрент в хорошем качестве
    Живой товар смотреть онлайн бесплатно в хорошем качестве


    Вы не можете начинать темы
    Вы не можете отвечать на сообщения
    Вы не можете редактировать свои сообщения
    Вы не можете удалять свои сообщения
    Вы не можете голосовать в опросах
    Вы не можете прикреплять файлы к сообщениям
    Вы можете скачивать файлы