Ссылка на приватное зеркало нашего сайта всего за 1$. Внимание количество ограничено!!!

2 сезон

iTunes

iTunes

1

iTunes

iTunes

iTunes

WEBRip

iTunes

30
pack

Вам бонус

ВАЖНО

!!Акция!!

Alien_RageХит недели

RePack

Horizon Zero Dawn

ИГРА 18+

pack

RePack

jed

!!Акция!!

Alien_Rage

RePack

fifa19

RePack

Assassins Creed: Odyssey

RePack

NEED FOR SPEED™ PAYBACK

4 сезон

9 сезон

Бесстыжие 9 сезон

Все сериалы

все сериалы на PB.wtf

RePack

FAR CRY 5
  

День, когда Земля остановилась / The Day the Earth Stood Still (Скотт Дерриксон) [2008 г., фантастика, триллер, драма, DVDRip, DUB, лицензия] piratbit.org

День, когда Земля остановилась через торрент piratbit.org

Размер: 2.05 GB | Добавлен: 7 лет 7 мес. назад | Торрент скачан:745 раз
Скачать  

03-02-2013 17:26 День, когда Земля остановилась Скачать торрент  

День, когда Земля остановилась / The Day the Earth Stood Still

Год выпуска: 2008
Страна: США
Жанр: фантастика, триллер, драма
Продолжительность: 01:43:37
Перевод: Дубляж, Лицензия
Субтитры: Отсутствуют

Режиссер: Скотт Дерриксон
Продюссер: Пол Харрис Бордман, Грегори Гудман, Эрвин Стофф
Сценарий: Дэвид Скарпа, Эдмунд Х. Норт

Мировой рейтинг IMDB 5.40 (93 050)


В ролях: Киану Ривз, Дженнифер Коннелли, Кэти Бейтс, Джейден Смит, Джон Клиз, Джон Хэмм, Кайл Чандлер, Роберт Неппер, Джеймс Хонг, Джон Ротмен, Александр Стёпин, Мария Цветкова-Овсянникова, Мария Кузнецова, Денис Горбатенко, Виктор Костецкий

Описание: Об инопланетянине, который прибыл на нашу планету с предупреждением: если не будут прекращены войны и разрушения, Земля будет уничтожена извне, поскольку представляет угрозу для остальной Вселенной!

Качество: DVDRip
Формат: AVI
Видео кодек: XviD
Аудио кодек: AC3
Видео: 720x320 (2.25:1), 23.976 fps, XviD build 50 ~2443 kbps avg, 0.44 bit/pixel
Аудио#1: 48 kHz, AC3 Dolby Digital, 3/2 (L,C,R,l,r) + LFE ch, ~384 kbps
скриншот   скриншот   скриншот   скриншот   скриншот   скриншот   скриншот  

Общее
Полное имя : F:ЗакачкиDenj.Kogda.Zemlya.Ostanovilasj.2008.DVDRip.avi
Формат : AVI
Формат/Информация : Audio Video Interleave
Профиль формата : OpenDML
Размер файла : 2,05 Гбайт
Продолжительность : 1 ч. 43 м.
Общий поток : 2834 Кбит/сек
Программа кодирования : VirtualDubMod 1.5.10.3 | www.virtualdub-fr.org || (build 2550/release)
Библиотека кодирования : VirtualDubMod build 2550/release

Видео
Идентификатор : 0
Формат : MPEG-4 Visual
Профиль формата : Advanced Simple@L5
Параметр BVOP формата : 2
Параметр QPel формата : Нет
Параметр GMC формата : Без точки перехода
Параметр матрицы формата : Default (H.263)
Идентификатор кодека : XVID
Идентификатор кодека/Подсказка : XviD
Продолжительность : 1 ч. 43 м.
Битрейт : 2438 Кбит/сек
Ширина : 720 пикселей
Высота : 320 пикселей
Соотношение сторон : 2,25:1
Частота кадров : 23,976 кадра/сек
Цветовое пространство : YUV
Субдискретизация насыщенности : 4:2:0
Битовая глубина : 8 бит
Тип развёртки : Прогрессивная
Метод сжатия : С потерями
Бит/(Пиксели*Кадры) : 0.441
Размер потока : 1,76 Гбайт (86%)
Библиотека кодирования : XviD 1.2.1 (UTC 2008-12-04)

Аудио
Идентификатор : 1
Формат : AC-3
Формат/Информация : Audio Coding 3
Расширение режима : CM (complete main)
Идентификатор кодека : 2000
Продолжительность : 1 ч. 43 м.
Вид битрейта : Постоянный
Битрейт : 384 Кбит/сек
Каналы : 6 каналов
Расположение каналов : Front: L C R, Side: L R, LFE
Частота : 48,0 КГц
Битовая глубина : 16 бит
Метод сжатия : С потерями
Размер потока : 285 Мбайт (14%)
Выравнивание : Разделение по промежуткам
Продолжительность промежутка : 42 мс. (1,00 видеокадр)
Время предзагрузки промежутка : 500 мс.


День, когда Земля остановилась скачать торрент


piratbit.org



Скачать День, когда Земля остановилась через торрент http://i29.fastpic.ru/big/2012/0316/66/73d85eb8e56aaceff28f422ed611cd66.jpg Скачать фильм День, когда Земля остановилась через торрент бесплантно в хорошем качестве Описание: Об инопланетянине, который прибыл на нашу планету с предупреждением: если не будут прекращены войны и разрушения, Земля будет ... 9.9 10 29
Info! Золотая раздача, скачанное не засчитывается.
Торрент: Зарегистрирован [2013-02-03 17:26] · скачан: 745 раз
Статус: √ проверено
Размер: 2.05 GB
Как cкачать? Как скачать День, когда Земля остановилась через торрент | qTorrent

% Раздел Тема Автор DL S | L
Фильмы [HD 720p, 1080p] (Хороший звук DUB, MVO) [ 5.53 GB ] День когда Земля остановилась / The Day the Earth Stood Still [2008 BDRip 1080p HEVC ()] Мичман37 Скачать
2 | 0
Фильмы (WEB-DL 720p, 1080p) [ 8.61 GB ] День когда Земля остановилась / The Day the Earth Stood Still [Open Matte] [2008 HDTVRip 1080p] DUB+AVO+OriginalSubs Assasinca Скачать
1 | 1
Фильмы [HD 720p, 1080p] (Хороший звук DUB, MVO) [ 7.95 GB ] День когда Земля остановилась / The Day the Earth Stood Still [2008 BDRip 1080p Авторский -Lockdown- Скачать
1 | 0
Фильмы 2006-2008 [ 1.45 GB ] День когда Земля остановилась / The Day the Earth Stood Stil [2008 HDRiр-AVC от R.G. AVI / AVC DUB ] ~Relizer~ Скачать
1 | 0
Фильмы 2006-2008 [ 1.48 GB ] День когда Земля остановилась /The Day the Earth Stood Still [2008 ... DVDRip лицензия] kuvagen Скачать
1 | 0
Фильмы [HD 720p, 1080p] (Хороший звук DUB, MVO) [ 4.92 GB ] День когда Земля остановилась / Day the Earth Stood Still The [2008 BDRip ] POCIK Скачать
1 | 0

28-11-2019 20:33  

Отключить всю рекламу на сайте

    Дорогой пользователь! Огромная просьба, поблагодарите релизера, оцените раздачу и оставьте свои комментарий, если Вы скачали День, когда Земля остановилась через торрент бесплатно! Внесите свою лепту в развитие PiratBit!
    Комментировать посты могут только пользователи прошедшие не сложную регистрацию
    Показать сообщения:    

    День, когда Земля остановилась через торрент
    Скачать бесплатно День, когда Земля остановилась
    День, когда Земля остановилась скачать торрент
    День, когда Земля остановилась смотреть онлайн
    Cкачать фильм День, когда Земля остановилась бесплатно
    День, когда Земля остановилась скачать торрент в хорошем качестве
    День, когда Земля остановилась смотреть онлайн бесплатно в хорошем качестве


    Вы не можете начинать темы
    Вы не можете отвечать на сообщения
    Вы не можете редактировать свои сообщения
    Вы не можете удалять свои сообщения
    Вы не можете голосовать в опросах
    Вы не можете прикреплять файлы к сообщениям
    Вы можете скачивать файлы