1 сезон

3 сезон

iTunes

1

iTunes

MVO

iTunes

13

1 сезон

RePack

30

Deluxe

pack

Лицензия

ВАЖНО

ИГРА 18+

pack

RePack

MK11

RePack

jed

RePack

fifa19

RePack

RDR2

RePack

NEED FOR SPEED™ PAYBACK

4 сезон

9 сезон

Бесстыжие 9 сезон

Все сериалы

все сериалы на PB.wtf

RePack

FAR CRY 5

Anonymous, добрый вечер, мы катастрофически не успеваем собрать деньги на оплату серверов, помогите нам пожалуйста 5,10,15р., для нас важна любая помощь . В качестве благодарности мы отключим Вам всю рекламу на сайте (укажите свой ник в строку Ваше имя)!

×
  
Magnet ссылка

Библиотекарь: В поисках копья судьбы / The Librarian: Quest for the Spear (Джонатан Фрайкс) [2004 г., Фэнтези, боевик, триллер, драма, мелодрама, комедия, приключения, BDRip, MVO, лицензия] piratbit.org

Библиотекарь: В поисках копья судьбы через торрент piratbit.org

Размер: 1.46 GB | Добавлен: 8 лет 5 мес. назад | Торрент скачан:264 раза
Скачать  

04-02-2013 19:18 Библиотекарь: В поисках копья судьбы Скачать торрент  


Библиотекарь: В поисках копья судьбы / The Librarian: Quest for the Spear
Год выпуска: 2004
Страна: США
Жанр: Фэнтези, боевик, триллер, драма, мелодрама, комедия, приключения
Продолжительность: 01:30:13
Перевод: Профессиональный многоголосый, Лицензия

Режиссер: Джонатан Фрайкс

Премьера в мире: 5 декабря 2004



В ролях: Ноа Уайли, Соня Уолгер, Боб Ньюхарт, Кайл МакЛахлан, Келли Ху, Дэвид Дайан Фишер, Джейн Куртин, Олимпия Дукакис, Лиза Бреннер, Марио Иван Мартинес, Клайд Кусацу, Алехандра Голла, Хосе Монтини, Джессика Морено, Маурицио Льера, Антонио Монрой, Леон Де Луис, Марк Франко, Кирк М. Петручелли, Майкл Роскин, Дарио Риполл, Марко Аурелио

Описание: Получив приглашение на собеседование в столичную библиотеку, студент Флинн Карсен даже и не думал, что эта работа станет смыслом его жизни. Однако, то, что предлагали ему работодатели, сильно отличалось от будничной полусонной работы библиотекаря, перебирающего карточки посетителей и расставляющего книги по полкам. Оказывается, у библиотеки есть вторая, тайная сторона, скрытая от глаз обывателей. В секретных комнатах хранятся древние артефакты и бесценные сокровища, истинные бриллианты человеческой культуры, среди которых были как меч Экскалибур, так и оригинал знаменитой "Моны Лизы" (то, что висит в Лувре, конечно же, всего лишь подделка). И Флинну предстоит стать их Xранителем.

Качество: BDRip [Blu-Ray Remux (1080i)]
Формат: AVI
Видео кодек: XviD
Аудио кодек: AC3
Видео: 704x400 (1.76:1), 23.976 fps, XviD build 64 ~1858 kbps avg, 0.28 bit/pixel
Аудио: 48 kHz, AC3 Dolby Digital, 3/2 (L,C,R,l,r) + LFE ch, ~448 kbps


Релиз группы:
Автор рипа:
скриншот  скриншот  
скриншот  скриншот  
скриншот  скриншот  





Общее:
Полное имя: D:Для сайтаRip'sbibliotekar'_v_poiskah_kop'ya_sud'by_BDRip_ot_R.G.TC-Movies.avi
Формат: AVI
Формат/Информация: Audio Video Interleave
Размер файла: 1,46 Гбайт
Продолжительность: 1 ч. 30 м.
Общий поток: 2315 Кбит/сек
Программа кодирования: VirtualDubMod 1.5.10.3 | (build 2550/release)
Библиотека кодирования: VirtualDubMod build 2550/release

Видео:
Идентификатор: 0
Формат: MPEG-4 Visual
Профиль формата: Advanced Simple@L5
Параметр BVOP формата: 2
Параметр QPel формата: Нет
Параметр GMC формата: Без точки перехода
Параметр матрицы формата: Default (H.263)
Идентификатор кодека: XVID
Идентификатор кодека/Подсказка: XviD
Продолжительность: 1 ч. 30 м.
Битрейт: 1858 Кбит/сек
Ширина: 704 пикс.
Высота: 400 пикс.
Соотношение сторон: 16:9
Частота кадров: 23,976 кадр/сек
Цветовое пространство: YUV
Подвыборка цветности: 4:2:0
Битовая глубина: 8 бит
Тип развёртки: Прогрессивная
Метод сжатия: С потерями
Бит/(Пиксели*Кадры): 0.275
Размер потока: 1,17 Гбайт (80%)
Библиотека кодирования: XviD 64

Аудио:
Идентификатор: 1
Формат: AC-3
Формат/Информация: Audio Coding 3
Расширение режима: CM (complete main)
Идентификатор кодека: 2000
Продолжительность: 1 ч. 30 м.
Вид битрейта: Постоянный
Битрейт: 448 Кбит/сек
Каналы: 6 каналов
Расположение каналов: Front: L C R, Side: L R, LFE
Частота: 48,0 КГц
Битовая глубина: 16 бит
Метод сжатия: С потерями
Размер потока: 289 Мбайт (19%)
Выравнивание: Разделение по промежуткам
Продолжительность промежутка: 42 мс. (1,00 видеокадр)
Время предзагрузки промежутка: 500 ms

piratbit.org



Скачать Библиотекарь: В поисках копья судьбы через торрент http://i51.fastpic.ru/big/2013/0204/be/194384095409d2d4ccc78c64adf43abe.png Скачать фильм Библиотекарь: В поисках копья судьбы через торрент бесплантно в хорошем качестве Описание: Получив приглашение на собеседование в столичную библиотеку, студент Флинн Карсен даже и не думал, что эта работа станет смыслом ... 10 10 2
Info! Золотая раздача, скачанное не засчитывается.
Торрент: Зарегистрирован [2013-02-04 19:18] · скачан: 264 раз
Статус: √ проверено
Размер: 1.46 GB
Как cкачать? Как скачать Библиотекарь: В поисках копья судьбы через торрент | UTorrent

28-11-2019 20:33  

Отключить всю рекламу на сайте

    Дорогой пользователь! Огромная просьба, поблагодарите релизера, оцените раздачу и оставьте свои комментарий, если Вы скачали Библиотекарь: В поисках копья судьбы через торрент бесплатно! Внесите свою лепту в развитие PiratBit!
    Комментировать посты могут только пользователи прошедшие не сложную регистрацию
    Показать сообщения:    

    Библиотекарь: В поисках копья судьбы через торрент
    Скачать бесплатно Библиотекарь: В поисках копья судьбы
    Библиотекарь: В поисках копья судьбы скачать торрент
    Библиотекарь: В поисках копья судьбы смотреть онлайн
    Cкачать фильм Библиотекарь: В поисках копья судьбы бесплатно
    Библиотекарь: В поисках копья судьбы скачать торрент в хорошем качестве
    Библиотекарь: В поисках копья судьбы смотреть онлайн бесплатно в хорошем качестве


    Вы не можете начинать темы
    Вы не можете отвечать на сообщения
    Вы не можете редактировать свои сообщения
    Вы не можете удалять свои сообщения
    Вы не можете голосовать в опросах
    Вы не можете прикреплять файлы к сообщениям
    Вы можете скачивать файлы