1 сезон

1 сезон

iTunes

1

КиноПоиск HD

Кинопоиск HD

iTunes

13

1 сезон

RePack

30

Deluxe

ВАЖНО

ИГРА 18+

pack

RePack

MK11
pack

Легкие деньги

RePack

jed

RePack

fifa19

RePack

RDR2

RePack

NEED FOR SPEED™ PAYBACK

4 сезон

9 сезон

Бесстыжие 9 сезон

Все сериалы

все сериалы на PB.wtf

RePack

FAR CRY 5
  
Magnet ссылка

Одиночка / A Man Apart (Ф. Гэри Грей) [2003 г., боевик, триллер, драма, криминал, DVDRip, DUB, лицензия] piratbit.org

Одиночка через торрент piratbit.org

Размер: 2.05 GB | Добавлен: 8 лет 2 мес. назад | Торрент скачан:332 раза
Скачать  

11-02-2013 08:42 Одиночка Скачать торрент  

Одиночка / A Man Apart

Год выпуска: 2003
Страна: США
Жанр: боевик, триллер, драма, криминал
Продолжительность: 01:45:03
Перевод: Дубляж, Лицензия
Субтитры: Отсутствуют

Режиссер: Ф. Гэри Грей
Продюссер: Роберт Джон Дегус, Вин Дизель, Винсент Ньюман
Сценарий: Кристиан Гьюдгэст, Пол Шойринг

Мировой рейтинг IMDB 5.90 (26 306)


В ролях: Вин Дизель, Лоренц Тейт, Тимоти Олифант, Джино Сильва, Жаклин Обрадорс, Стив Истин, Хуан Фернандес, Джефф Кобер, Марко Родригес, Майк Морофф, Эмилио Ривера, Джордж Шарперсон, Малик Строутер, Элис Эмтер, Джим Боэк, Рубелио Брекемонте, Бен Брэй, Норм Комптон, Атьяна Кунс-Паркер, Эстебан Куето, Кен Давитян, Эйприл Флауэрс, Элиан Фитц-Картер, Роберт Фрад, Захари Джон Гонзалес, Ричард Гросс, Ричард Хаж, Паула Харрисон, Тоби Холгин, Терри Хойос, Томас Копаче, Джулия Ли, Ф. Валентино Моралес, Скотт Рейц, Джо Родригез, Мик Скриба, Каррин Стеффанс-МакКрэри

Описание: Вин Дизель в роли агента Шона Веттера, оперативника, борющегося с контрабандой наркотиков из Мексики. После того, как глава наркокартеля был заключен в тюрьму, появляется новый таинственный персонаж, известный как Дьябло, который берет в свои руки контроль над всем трафиком. Когда в ходе проваленной операции убивают жену Веттера, он и его коллега должны внедриться в преступный картель, чтобы вычислить неуловимого Дьябло...

Доп. информация: Исходник DVD-5
Рип совместим со всеми бытовыми видеоплеерами.


Качество: DVDRip
Формат: AVI
Видео кодек: XviD
Аудио кодек: AC3
Видео: 720x304 (2.37:1), 25 fps, XviD build 50 ~2401 kbps avg, 0.44 bit/pixel
Аудио#1: 48 kHz, AC3 Dolby Digital, 3/2 (L,C,R,l,r) + LFE ch, ~384 kbps




Общее
Полное имя : F:ЗакачкиOdinochka.2003.DVDRip.avi
Формат : AVI
Формат/Информация : Audio Video Interleave
Профиль формата : OpenDML
Размер файла : 2,05 Гбайт
Продолжительность : 1 ч. 45 м.
Общий поток : 2792 Кбит/сек
Программа кодирования : VirtualDubMod 1.5.10.3 | www.virtualdub-fr.org || (build 2550/release)
Библиотека кодирования : VirtualDubMod build 2550/release

Видео
Идентификатор : 0
Формат : MPEG-4 Visual
Профиль формата : Advanced Simple@L5
Параметр BVOP формата : 2
Параметр QPel формата : Нет
Параметр GMC формата : Без точки перехода
Параметр матрицы формата : Default (H.263)
Идентификатор кодека : XVID
Идентификатор кодека/Подсказка : XviD
Продолжительность : 1 ч. 45 м.
Битрейт : 2396 Кбит/сек
Ширина : 720 пикселей
Высота : 304 пикселя
Соотношение сторон : 2,35:1
Частота кадров : 25,000 кадров/сек
Цветовое пространство : YUV
Субдискретизация насыщенности : 4:2:0
Битовая глубина : 8 бит
Тип развёртки : Прогрессивная
Метод сжатия : С потерями
Бит/(Пиксели*Кадры) : 0.438
Размер потока : 1,76 Гбайт (86%)
Библиотека кодирования : XviD 1.2.1 (UTC 2008-12-04)

Аудио
Идентификатор : 1
Формат : AC-3
Формат/Информация : Audio Coding 3
Расширение режима : CM (complete main)
Идентификатор кодека : 2000
Продолжительность : 1 ч. 45 м.
Вид битрейта : Постоянный
Битрейт : 384 Кбит/сек
Каналы : 6 каналов
Расположение каналов : Front: L C R, Side: L R, LFE
Частота : 48,0 КГц
Битовая глубина : 16 бит
Метод сжатия : С потерями
Размер потока : 289 Мбайт (14%)
Выравнивание : Разделение по промежуткам
Продолжительность промежутка : 40 мс. (1,00 видеокадр)
Время предзагрузки промежутка : 500 мс.


Одиночка скачать торрент


piratbit.org



Скачать Одиночка через торрент http://i52.fastpic.ru/big/2013/0210/07/50be78b43c97defd1e046f4a5363f107.jpg Скачать фильм Одиночка через торрент бесплантно в хорошем качестве Описание: Вин Дизель в роли агента Шона Веттера, оперативника, борющегося с контрабандой наркотиков из Мексики. После того, как глава ... 9.4 10 12
Info! Золотая раздача, скачанное не засчитывается.
Торрент: Зарегистрирован [2013-02-11 08:42] · скачан: 332 раз
Статус: √ проверено
Размер: 2.05 GB
Как cкачать? Как скачать Одиночка через торрент | UTorrent

% Раздел Тема Автор DL S | L
Фильмы (HD 720p, 1080p) (48-60 fps) [ 4.95 GB ] Одиночка / A Man Apart [2003 BDRip 720p / 60 FPS ] от R.G. HD-Films slaventi-69 Скачать
3 | 0
Фильмы [HD 720p, 1080p] (Хороший звук DUB, MVO) [ 5.42 GB ] Одиночка / A man apart [2003 BDRip 720p by msltel] DUB DVO 2 x AVO msltel Скачать
1 | 0
Фильмы [HD 720p, 1080p] (Хороший звук DUB, MVO) [ 13.38 GB ] Одиночка / A man apart [2003 BDRip 1080p by msltel] DUB DVO 2 x AVO msltel Скачать
1 | 0
Релизы по Парсеру [Игры, Сериалы и Фильмы и другое...] [ 747 MB ] Одиночка / A Man Apart [2003 HDRip] AVO sanekbest1 Скачать
1 | 0
Фильмы [HD 720p, 1080p] (Хороший звук DUB, MVO) [ 2.16 GB ] Одиночка / A Man Apart [2003 BDRip] ACFIORENTINA Скачать
1 | 0
Фильмы 2001-2005 [ 2.14 GB ] Одиночка / A Man Apart [2003 HDRip-AVC DUB + Оригинал] lev1244v Скачать
1 | 0
Фильмы 2001-2005 [ 1.37 GB ] Одиночка / A man apart [2003 DVDRip] 220v0lt Скачать
1 | 0

28-11-2019 20:33  

Отключить всю рекламу на сайте

11-02-2013 11:18 Одиночка Скачать торрент  

хороший фильм piratbit.org



02-03-2015 19:06 Одиночка Скачать торрент  

Кто нибудь дайте скоростиpiratbit.org



    Дорогой пользователь! Огромная просьба, поблагодарите релизера, оцените раздачу и оставьте свои комментарий, если Вы скачали Одиночка через торрент бесплатно! Внесите свою лепту в развитие PiratBit!
    Комментировать посты могут только пользователи прошедшие не сложную регистрацию
    Показать сообщения:    

    Одиночка через торрент
    Скачать бесплатно Одиночка
    Одиночка скачать торрент
    Одиночка смотреть онлайн
    Cкачать фильм Одиночка бесплатно
    Одиночка скачать торрент в хорошем качестве
    Одиночка смотреть онлайн бесплатно в хорошем качестве


    Вы не можете начинать темы
    Вы не можете отвечать на сообщения
    Вы не можете редактировать свои сообщения
    Вы не можете удалять свои сообщения
    Вы не можете голосовать в опросах
    Вы не можете прикреплять файлы к сообщениям
    Вы можете скачивать файлы