Доктор Стрэндж

Лицензия

Добыча

MVO

Дом дракона

1 сезон

Тор

Лицензия

Мэверик

Лицензия

Там, где раки поют

MVO

Властелин колец

1 сезон

Ultimate

pack

Рекомендуем

30

Repack

ВАЖНО

ВАЖНО

Ghostwire

RePack

jed

RePack

nioh2

RePack

RDR2

RePack

NEED FOR SPEED™ PAYBACK

RePack

скачать торрент

Кинопоиск HD

Острые козырьки 6 сезон

6 сезон

FAR CRY 6

RePack

скачать торрент

Лицензия

скачать торрент

MVO

1

1 сезон

скачать торрент

1 сезон

скачать торрент

Лицензия

  

Судьба человека (Сергей Бондарчук) [1959 г., драма, военный, биография, DVDRip]

Судьба человека через торрент piratbit.org

Размер: 1.46 GB | Добавлен: 9 лет 7 мес. назад | Торрент скачан:293 раза
Смотреть онлайн | Скачать   

14-02-2013 19:28 Судьба человека Скачать торрент  

Судьба человека

Год выпуска: 1959
Страна: СССР
Жанр: драма, военный, биография
Продолжительность: 01:36:37
Перевод: Не требуется

Режиссер: Сергей Бондарчук
Сценарий: Юрий Лукин, Федор Шахмагонов, Михаил Шолохов

Премьера в мире: 12 апреля 1959



В ролях:
Сергей Бондарчук — Андрей Соколов
Павлик Борискин — Ванюшка
Зинаида Кириенко — Ирина, жена Андрея Соколова
Павел Волков — Иван Тимофеевич, сосед Соколовых
Юрий Аверин — Мюллер, комендант лагеря
Кирилл Алексеев — немецкий майор
Павел Винников — советский полковник
Евгений Тетерин — писатель
Анатолий Чемодуров — советский подполковник
Александр Новиков — набожный солдат
Лев Борисов — взводный
Александр Лебедев — молодой солдат (нет в титрах)
Виктор Маркин — пленный военврач
Евгений Кудряшёв — пленный Крыжнев
Владимир Иванов — запевала, заключённый концлагеря
Петр Савин — Пётр, друг Андрея Соколова
Евгения Мельникова — квартирная хозяйка
Николай Опарин — пленный
Николай Печенцов — узник концлагеря
Андрей Пунтус — немецкий офицер в лагере
Георгий Шаповалов — заключённый концлагеря
Владимир Стрельников — Анатолий, сын Соколова
Георгий Милляр — пьяный немецкий солдат
Евгений Моргунов — толстый немецкий солдат (нет в титрах)
Даниил Нетребин — пленный (Нет в титрах)
П. Мухин — пленный (нет в титрах)
Юри Мююр — немецкий офицер (нет в титрах)
Виктор Лоренц — одноглазый офицер (нет в титрах)
Анатолий Никитин — офицер (нет в титрах)
Андрей Карасёв — немецкий солдат

Описание: Фильм рассказывает о русском солдате, которого война подвергла страшным испытаниям, лишила дома и семьи, бросила в концлагерь. Но судьба не сломила его дух — он выжил, отстоял своё право быть человеком, сохранил способность любить…

Качество: DVDRip
Формат: AVI
Видео кодек: XviD
Аудио кодек: AC3
Видео: 704x528, (4:3), 25,000 fps,1699 Kbps
Аудио#1: 48Hz, AC3, 6 ch,,448 Kbps
скриншот  скриншот  скриншот  скриншот  скриншот  скриншот  скриншот  

Общее
Полное имя : D:загрузкиSudba.cheloveka.1959.avi
Формат : AVI
Формат/Информация : Audio Video Interleave
Размер файла : 1,46 Гбайт
Продолжительность : 1 ч. 36 м.
Общий поток : 2157 Кбит/сек
Режиссёр : zim2001
Программа кодирования : VirtualDubMod 1.5.10.2 (build 2540/release)

Видео
Идентификатор : 0
Формат : MPEG-4 Visual
Профиль формата : Advanced Simple@L5
Параметр BVOP формата : 2
Параметр QPel формата : Нет
Параметр GMC формата : Без точки перехода
Параметр матрицы формата : Выборочная
Идентификатор кодека : XVID
Идентификатор кодека/Подсказка : XviD
Продолжительность : 1 ч. 36 м.
Битрейт : 1699 Кбит/сек
Ширина : 704 пикселя
Высота : 528 пикселей
Соотношение сторон : 4:3
Частота кадров : 25,000 кадров/сек
Цветовое пространство : YUV
Субдискретизация насыщенности : 4:2:0
Битовая глубина : 8 бит
Тип развёртки : Прогрессивная
Метод сжатия : С потерями
Бит/(Пиксели*Кадры) : 0.183
Размер потока : 1,15 Гбайт (79%)
Библиотека кодирования : XviD 56

Аудио
Идентификатор : 1
Формат : AC-3
Формат/Информация : Audio Coding 3
Расширение режима : CM (complete main)
Параметр Endianness формата : Big
Идентификатор кодека : 2000
Продолжительность : 1 ч. 36 м.
Вид битрейта : Постоянный
Битрейт : 448 Кбит/сек
Каналы : 6 каналов
Расположение каналов : Front: L C R, Side: L R, LFE
Частота : 48,0 КГц
Битовая глубина : 16 бит
Метод сжатия : С потерями
Задержка видео : 476 мс.
Размер потока : 310 Мбайт (21%)
Выравнивание : Разделение по промежуткам
Продолжительность промежутка : 40 мс. (1,00 видеокадр)
Время предзагрузки промежутка : 500 мс.




Скачать Судьба человека через торрент https://pic1.kartinco.top/images/111/qbptzydo9j.jpg Скачать, смотреть онлайн Судьба человека бесплантно в хорошем качестве Описание: Фильм рассказывает о русском солдате, которого война подвергла страшным испытаниям, лишила дома и семьи, бросила в концлагерь. Но ... 9.9 10 17
Info! Золотая раздача, скачанное не засчитывается.
Торрент: Зарегистрирован [2013-02-14 19:28] · скачан: 293 раз
Статус: √ проверено
Размер: 1.46 GB
Как cкачать? Как скачать Судьба человека через торрент | UTorrent

% Раздел Тема Автор DL S | L
Кино СССР [ 5.89 GB ] Судьба человека | | WEBRip 720 от KORSAR filbi1976 Скачать
1 | 0
Кино СССР [ 1.46 GB ] Судьба человека | | DVDRip-AVC от AVP Studio AVP Studio Скачать
1 | 0
Кино СССР [ 745 MB ] Судьба человека | | DVDRip от AVP Studio AVP Studio Скачать
1 | 0
Кино СССР [ 1.46 GB ] Судьба человека | | DVDRip от AVP Studio AVP Studio Скачать
1 | 0
Кино СССР [ 1.99 GB ] Судьба человека | | DVDRip-AVC smaster Скачать
1 | 0

28-11-2019 20:33  


Отключить вcю реклaмy на сайте, в т.ч. и в плеере онлайн просмотра!

21-04-2014 16:54 Судьба человека Скачать торрент  

как раз к ДНЮ ПОБЕДЫ погляжу!



    Дорогой пользователь! Огромная просьба, поблагодарите релизера, оцените раздачу и оставьте свои комментарий, если Вы скачали Судьба человека через торрент бесплатно!!
    Комментировать посты могут только пользователи прошедшие не сложную регистрацию
    Показать сообщения:    


    Судьба человека через торрент
    Скачать бесплатно Судьба человека
    Судьба человека скачать торрент
    Судьба человека смотреть онлайн
    Cкачать фильм Судьба человека бесплатно
    Судьба человека скачать торрент в хорошем качестве
    Судьба человека смотреть онлайн бесплатно в хорошем качестве
    Вы не можете начинать темы
    Вы не можете отвечать на сообщения
    Вы не можете редактировать свои сообщения
    Вы не можете удалять свои сообщения
    Вы не можете голосовать в опросах
    Вы не можете прикреплять файлы к сообщениям
    Вы можете скачивать файлы