Достать ножи: Стеклянная луковица

MVO

Добыча

Дубляж

Уэнсдэй

1 сезон

Тор

Дубляж

13 клиническая

1 сезон

Жестокая ночь

MVO

Одни из нас

1 сезон

Deluxe

pack

Рекомендуем

30

Пиратка

ВАЖНО

ВАЖНО

Ghostwire

Пиратка

jed

RePack

nioh2

RePack

RDR2

RePack

NEED FOR SPEED™ PAYBACK

RePack

скачать торрент

Кинопоиск HD

Острые козырьки 6 сезон

6 сезон

FAR CRY 6

RePack

скачать торрент

Лицензия

скачать торрент

MVO

1

1 сезон

скачать торрент

1 сезон

скачать торрент

Лицензия

  

Отклонение / Swerve (Крэйг Лэхифф / Craig Lahiff) [2011 г., триллер, драма, криминал, BDRemux 1080p, VO Хихикающий доктор ]

Отклонение через торрент piratbit.org

Размер: 18.58 GB | Добавлен: 9 лет назад | Торрент скачан:39 раз
Смотреть онлайн | Скачать | Поддержите нас   

17-02-2013 08:57 Отклонение Скачать торрент  

Отклонение / Swerve «Wrong Turn, Wrong Place, Wrong Time»Год выпуска: 2011
Страна: Австралия
Жанр: триллер, драма, криминал
Продолжительность: 01:26:07.041
Перевод: Одноголосый закадровый Хихикающий доктор

Режиссер: Крэйг Лэхифф / Craig LahiffВ ролях: Джейсон Кларк, Эмма Бут, Дэвид Лайонс, Трэвис МакМахон, Винс Колосимо, Рой Биллинг, Энди Андерсон, Крис Асимос, Чан Гриффин, Брендан Герин и др.

Описание: Колин становится свидетелем ДТП, обнаружив на месте происшествия мертвого мужчину, красивую женщину, и чемодан, полный денег. Пытаясь поступить по закону совести, он сразу же оказывается втянутым в чужую и опасную игру.

Качество: BDRemux 1080p
Формат: MKV
Видео кодек: MPEG-4 AVC Video
Аудио кодек: Dolby Digital Audio / DTS-HD Master Audio
Видео: MPEG-4 AVC Video / 27239 kbps / 1920x1080p / 24 fps / 16:9 / High Profile 4.1
Аудио#1: Русский / Dolby Digital Audio / 192 kbps / 2.0 / 48 kHz / 16-bit (VO Хихикающий доктор)
Аудио#2: English / DTS-HD Master Audio / 3450 kbps / 5.1 / 48 kHz / 24-bit (DTS Core: 5.1 / 48 kHz / 1509 kbps / 24-bit) (Оригинал)
скриншот   скриншот   скриншот   скриншот   скриншот   скриншот  

Z:piratbitОтклонение (Под откос) (Swerve) 2011, Австралия, триллер, драма, криминал, BDRemux 1080p GORENOISE.mkv
General
Unique ID : 218105136660826056696811877896505910642 (0xA4158578A23FE91DACF11D489B19E572)
Complete name : Z:Rutracker.orgОтклонение (Под откос) (Swerve) 2011, Австралия, триллер, драма, криминал, BDRemux 1080p GORENOISE.mkv
Format : Matroska
Format version : Version 4 / Version 2
File size : 18.6 GiB
Duration : 1h 26mn
Overall bit rate mode : Variable
Overall bit rate : 30.8 Mbps
Movie name : GORENOISE
Encoded date : UTC 2010-02-22 21:41:31
Writing application : mkvmerge v5.9.0 ('On The Loose') built on Dec 9 2012 15:37:01
Writing library : libebml v1.3.0 + libmatroska v1.4.0
Video #1
ID : 1
Format : AVC
Format/Info : Advanced Video Codec
Format profile : High@L4.1
Format settings, CABAC : Yes
Format settings, ReFrames : 4 frames
Format settings, GOP : M=3, N=18
Codec ID : V_MPEG4/ISO/AVC
Duration : 1h 26mn
Bit rate mode : Variable
Bit rate : 28.4 Mbps
Maximum bit rate : 37.0 Mbps
Width : 1 920 pixels
Height : 1 080 pixels
Display aspect ratio : 16:9
Frame rate mode : Constant
Frame rate : 24.000 fps
Standard : PAL
Color space : YUV
Chroma subsampling : 4:2:0
Bit depth : 8 bits
Scan type : Progressive
Bits/(Pixel*Frame) : 0.571
Stream size : 17.2 GiB (92%)
Title : GORENOISE
Language : English
Default : Yes
Forced : No
Color primaries : BT.709
Transfer characteristics : BT.709
Matrix coefficients : BT.709
Audio #2
ID : 2
Format : AC-3
Format/Info : Audio Coding 3
Mode extension : CM (complete main)
Format settings, Endianness : Big
Codec ID : A_AC3
Duration : 1h 26mn
Bit rate mode : Constant
Bit rate : 192 Kbps
Channel(s) : 2 channels
Channel positions : Front: L R
Sampling rate : 48.0 KHz
Bit depth : 16 bits
Compression mode : Lossy
Stream size : 119 MiB (1%)
Title : Одноголосый закадровый Хихикающий доктор
Language : Russian
Default : Yes
Forced : No
Audio #3
ID : 3
Format : DTS
Format/Info : Digital Theater Systems
Format profile : MA / Core
Codec ID : A_DTS
Duration : 1h 26mn
Bit rate mode : Variable
Bit rate : 1 561 Kbps / 1 510 Kbps
Channel(s) : 6 channels
Channel positions : Front: L C R, Side: L R, LFE
Sampling rate : 48.0 KHz
Bit depth : 24 bits
Compression mode : Lossless / Lossy
Title : Оригинал
Language : English
Default : No
Forced : No
Text #4
ID : 4
Format : UTF-8
Codec ID : S_TEXT/UTF8
Codec ID/Info : UTF-8 Plain Text
Language : English
Default : No
Forced : No
Menu
00:00:04.833 : en:1
00:08:30.000 : en:2
00:14:09.000 : en:3
00:28:08.000 : en:4
00:34:10.000 : en:5
00:40:05.000 : en:6
00:50:51.000 : en:7
01:00:00.000 : en:8
01:07:16.000 : en:9
01:14:09.000 : en:10
01:18:15.000 : en:11
01:22:06.000 : en:12
01:23:04.000 : en:13
01:26:05.000 : en:14


Отклонение скачать торрент





Скачать Отклонение через торрент http://i54.fastpic.ru/big/2013/0113/a3/88dfb058468c2384132d65a1c19c6ea3.jpg Скачать, смотреть онлайн Отклонение бесплантно в хорошем качестве Описание: Колин становится свидетелем ДТП, обнаружив на месте происшествия мертвого мужчину, красивую женщину, и чемодан, полный денег. ... 5 10 1
Info! Золотая раздача, скачанное не засчитывается.
Торрент: Зарегистрирован [2013-02-17 08:57] · скачан: 39 раз
Статус: √ проверено
Размер: 18.58 GB
Как cкачать? Как скачать Отклонение через торрент | UTorrent

28-11-2019 20:33  


Отключить вcю реклaмy на сайте, в т.ч. и в плеере онлайн просмотра!

17-02-2013 17:00 Отклонение Скачать торрент  

Анонимный
Благодарю за релиз!



    Дорогой пользователь! Огромная просьба, поблагодарите релизера, оцените раздачу и оставьте свои комментарий, если Вы скачали Отклонение через торрент бесплатно!!
    Комментировать посты могут только пользователи прошедшие не сложную регистрацию
    Показать сообщения:    


    Отклонение через торрент
    Скачать бесплатно Отклонение
    Отклонение скачать торрент
    Отклонение смотреть онлайн
    Cкачать фильм Отклонение бесплатно
    Отклонение скачать торрент в хорошем качестве
    Отклонение смотреть онлайн бесплатно в хорошем качестве
    Вы не можете начинать темы
    Вы не можете отвечать на сообщения
    Вы не можете редактировать свои сообщения
    Вы не можете удалять свои сообщения
    Вы не можете голосовать в опросах
    Вы не можете прикреплять файлы к сообщениям
    Вы можете скачивать файлы
    Отклонение / Swerve [2011 г., триллер, драма, криминал, BDRemux 1080p, VO Хихикающий доктор ] смотреть онлайн, скачать торрент picoco.icu