Marvel's Avengers Deluxe Edition (супер цена) 159р. Внимание количество ограничено!!!

2 сезон

iTunes

iTunes

1

iTunes

iTunes

iTunes

WEBRip

iTunes

30
pack

Новость дня

ВАЖНО

!!Акция!!

Alien_RageХит недели

RePack

Horizon Zero Dawn

ИГРА 18+

pack

RePack

jed

!!Акция!!

Alien_Rage

RePack

fifa19

RePack

Assassins Creed: Odyssey

RePack

NEED FOR SPEED™ PAYBACK

4 сезон

9 сезон

Бесстыжие 9 сезон

Все сериалы

все сериалы на PB.wtf

RePack

FAR CRY 5
  

Каратель: Территория войны / Punisher: War Zone (Лекси Александр / Lexi Alexander) [2008 г., боевик, триллер, драма, криминал, BDRip, MVO + Оригинальная звуковая дорожка] piratbit.org

Каратель: Территория войны через торрент piratbit.org

Размер: 2.18 GB | Добавлен: 7 лет 7 мес. назад | Торрент скачан:257 раз
Скачать  

19-02-2013 20:57 Каратель: Территория войны Скачать торрент  

Каратель: Территория войны / Punisher: War Zone

Год выпуска: 2008
Страна: США
Жанр: боевик, триллер, драма, криминал
Продолжительность: 103 мин. / 01:42:41
Перевод: Профессиональный (многоголосый, закадровый) + Оригинальная звуковая дорожка

Режиссер: Лекси Александр / Lexi Alexander
Продюссер: Гэйл Энн Хёрд, Ари Арад, Кевин Файги
Сценарий: Ник Сантора, Артур Маркам, Мэтт Холлоуэй

Бюджет: $35 000 000
Премьера в мире: 4 декабря 2008




В ролях: Рэй Стивенсон, Доминик Уэст, Даг Хатчисон, Колин Сэлмон, Уэйн Найт, Дэш Майок, Джули Бенц, Стефани Янушаускас, Марк Камачо, Романо Орзари

Описание: Жесткий, брутальный и беспощадный вершитель порядка Фрэнк Кастл по прозвищу Каратель ведет настоящую войну с миром организованной преступности. Он не знает жалости и компромиссов и собственными руками отправляет плохих парней в ад, либо за железную решетку. Его методы продиктованы местью, а действия жаждой справедливости. На этот раз он схлестнется со своим главным противником, мега-маньяком — Джигсо, восседающим на криминальном троне Нью-Йорка и управляющим целой армией психопатов и головорезов. С другой стороны ФБР создает свой отряд, призванный пресечь сверхмощную атаку Карателя. Зона военных действий определена! Но это только начало!

Качество: BDRip
Формат: AVI
Видео кодек: XviD
Аудио кодек: AC3
Видео: 720x304 (2.35:1), 23,976 fps, XviD build 50 ~2131 kbps avg, 0.406 bit/pixel
Аудио#1: 48 kHz,6 ch, AC3 Dolby Digital, 3/2 (L,C,R,l,r) + LFE ch, ~448.00 kbps avg
Аудио#2: 48 kHz,6 ch, AC3 Dolby Digital, 3/2 (L,C,R,l,r) + LFE ch, ~448.00 kbps avg



Общее
Полное имя : C:VideoKaratel.Territoriya.voyny.2008.DUAL.BDRip.avi
Формат : AVI
Формат/Информация : Audio Video Interleave
Профиль формата : OpenDML
Размер файла : 2,18 Гбайт
Продолжительность : 1 ч. 42 м.
Общий поток : 3045 Кбит/сек
Название фильма : Karatel.Territoriya.voyny.2008.DUAL.BDRip.XviD.AC3.-HQCLUB
Режиссёр : kingsize87
Программа кодирования : VirtualDubMod 1.5.10.2 (build 2542/release)
Библиотека кодирования : VirtualDubMod build 2542/release
Правообладатель : http://hqclub.net
Примечание : 15.12.2010

Видео
Идентификатор : 0
Формат : MPEG-4 Visual
Профиль формата : Advanced Simple@L5
Параметр BVOP формата : 1
Параметр QPel формата : Нет
Параметр GMC формата : Без точки перехода
Параметр матрицы формата : Выборочная
Идентификатор кодека : XVID
Идентификатор кодека/Подсказка : XviD
Продолжительность : 1 ч. 42 м.
Битрейт : 2131 Кбит/сек
Ширина : 720 пикселей
Высота : 304 пикселя
Соотношение сторон : 2,35:1
Частота кадров : 23,976 кадра/сек
Цветовое пространство : YUV
Субдискретизация насыщенности : 4:2:0
Битовая глубина : 8 бит
Тип развёртки : Прогрессивная
Метод сжатия : С потерями
Бит/(Пиксели*Кадры) : 0.406
Размер потока : 1,53 Гбайт (70%)
Библиотека кодирования : XviD 1.2.1 (UTC 2008-12-04)

Аудио #1
Идентификатор : 1
Формат : AC-3
Формат/Информация : Audio Coding 3
Расширение режима : CM (complete main)
Параметр Endianness формата : Big
Идентификатор кодека : 2000
Продолжительность : 1 ч. 42 м.
Вид битрейта : Постоянный
Битрейт : 448 Кбит/сек
Каналы : 6 каналов
Расположение каналов : Front: L C R, Side: L R, LFE
Частота : 48,0 КГц
Битовая глубина : 16 бит
Метод сжатия : С потерями
Размер потока : 329 Мбайт (15%)
Выравнивание : Разделение по промежуткам
Продолжительность промежутка : 42 мс. (1,00 видеокадр)
Время предзагрузки промежутка : 500 мс.

Аудио #2
Идентификатор : 2
Формат : AC-3
Формат/Информация : Audio Coding 3
Расширение режима : CM (complete main)
Параметр Endianness формата : Big
Идентификатор кодека : 2000
Продолжительность : 1 ч. 42 м.
Вид битрейта : Постоянный
Битрейт : 448 Кбит/сек
Каналы : 6 каналов
Расположение каналов : Front: L C R, Side: L R, LFE
Частота : 48,0 КГц
Битовая глубина : 16 бит
Метод сжатия : С потерями
Размер потока : 329 Мбайт (15%)
Выравнивание : Разделение по промежуткам
Продолжительность промежутка : 42 мс. (1,00 видеокадр)
Время предзагрузки промежутка : 500 мс.


Каратель: Территория войны скачать торрент


piratbit.org



Скачать Каратель: Территория войны через торрент http://i53.fastpic.ru/big/2013/0219/21/983db016155013c95ceacd677db2c321.png Скачать фильм Каратель: Территория войны через торрент бесплантно в хорошем качестве Описание: Жесткий, брутальный и беспощадный вершитель порядка Фрэнк Кастл по прозвищу Каратель ведет настоящую войну с миром организованной ... 10 10 12
Info! Золотая раздача, скачанное не засчитывается.
Торрент: Зарегистрирован [2013-02-19 20:57] · скачан: 257 раз
Статус: √ проверено
Размер: 2.18 GB
Как cкачать? Как скачать Каратель: Территория войны через торрент | qTorrent

% Раздел Тема Автор DL S | L
Ultra HD (UHD: 2K, 4K, 8K) — видео сверхвысокой чёткости [ 16.93 GB ] Каратель: Территория Войны / Punisher: War Zone [2008 UHD BDRip 2160p] 2xAVO+2xMVO bober100 Скачать
2 | 0
Ultra HD (UHD: 2K, 4K, 8K) — видео сверхвысокой чёткости [ 52.58 GB ] Каратель: Территория войны / Punisher: War Zone [2008 UHD BDRemux 2160p] 2xMVO + 2xAVO sheker187 Скачать
1 | 0
Фильмы 2006-2008 [ 1.46 GB ] Каратель: Территория войны / Punisher: War Zone [2008 BDRip] kycher1972 Скачать
1 | 0
Фильмы 2006-2008 [ 1.53 GB ] Каратель: Территория войны / Punisher: War Zone [2008 ... DVDRip] kuvagen Скачать
1 | 0

28-11-2019 20:33  

Отключить всю рекламу на сайте

    Дорогой пользователь! Огромная просьба, поблагодарите релизера, оцените раздачу и оставьте свои комментарий, если Вы скачали Каратель: Территория войны через торрент бесплатно! Внесите свою лепту в развитие PiratBit!
    Комментировать посты могут только пользователи прошедшие не сложную регистрацию
    Показать сообщения:    

    Каратель: Территория войны через торрент
    Скачать бесплатно Каратель: Территория войны
    Каратель: Территория войны скачать торрент
    Каратель: Территория войны смотреть онлайн
    Cкачать фильм Каратель: Территория войны бесплатно
    Каратель: Территория войны скачать торрент в хорошем качестве
    Каратель: Территория войны смотреть онлайн бесплатно в хорошем качестве


    Вы не можете начинать темы
    Вы не можете отвечать на сообщения
    Вы не можете редактировать свои сообщения
    Вы не можете удалять свои сообщения
    Вы не можете голосовать в опросах
    Вы не можете прикреплять файлы к сообщениям
    Вы можете скачивать файлы