Достать ножи: Стеклянная луковица

MVO

Добыча

Дубляж

Уэнсдэй

1 сезон

Тор

Дубляж

13 клиническая

1 сезон

Жестокая ночь

MVO

Одни из нас

1 сезон

Deluxe

pack

Рекомендуем

30

Пиратка

ВАЖНО

ВАЖНО

Ghostwire

Пиратка

jed

RePack

nioh2

RePack

RDR2

RePack

NEED FOR SPEED™ PAYBACK

RePack

скачать торрент

Кинопоиск HD

Острые козырьки 6 сезон

6 сезон

FAR CRY 6

RePack

скачать торрент

Лицензия

скачать торрент

MVO

1

1 сезон

скачать торрент

1 сезон

скачать торрент

Лицензия

  

Вспомнить всё / Total Recall (Лен Уайзман) [2012 г., фантастика, боевик, триллер, приключения, Blu-Ray, Дубляж, лицензия] / 2 disk set

Вспомнить всё через торрент piratbit.org

Размер: 64.06 GB | Добавлен: 9 лет назад | Торрент скачан:6 раз
Смотреть онлайн | Скачать | Поддержите нас   

21-02-2013 08:24 Вспомнить всё Скачать торрент  



Вспомнить всё [Театральная и Расширенная версии]
Total Recall [Theatrical & Extended Cut]


«Ты то, что ты помнишь»
Год выпуска: 2012
Страна: США, Канада
Жанр: фантастика, боевик, триллер, приключения
Продолжительность: 02:10:16 / 02:17:07
Перевод: Дубляж, Лицензия

Режиссер: Лен Уайзман
Продюссер: Тоби Джаффе, Нил Х. Мориц, Рик Кидни
Сценарий: Курт Уиммер, Марк Бомбэк, Рональд Шусетт

Бюджет: $125 000 000

Мировой рейтинг IMDB 6.30 (97 386)


В ролях: Колин Фаррелл, Кейт Бекинсейл, Джессика Бил, Брайан Крэнстон, Джон Чо, Билл Найи, Букем Вудбайн, Уилл Юн Ли, Милтон Барнс, Джеймс Макгоун

Описание: Он — обычный рабочий-строитель, живущий в маленькой квартирке в захудалом районе города будущего где-то в Новой Азии. Хотя собственная жизнь его в целом устраивает, он не может избавиться от чувства, что ему хочется чего-то большего. Потребность в новых будоражащих впечатлениях приводит его в офис компании «Вспомнить всё», имплантирующей в память своих клиентов воспоминания-фантазии, которые они могут получить не рискуя при этом пережить сами события в реальности. Пока герой выбирает, какие именно воспоминания ему приобрести, отряд спецназа штурмует комнату, где он находится, и уже было берет его под арест. К своему собственному удивлению, он молниеносно уничтожает весь отряд при помощи невероятных бойцовских навыков, о владении которыми он и не подозревал…

Качество: Blu-Ray
Формат: BDAV
Видео кодек: H.26x
Аудио кодек: AC3
Видео: 1920x1080 (16:9), 23.976 fps, 35.2 Mbps (0.708 bit/pixel)
Аудио #1: AC-3 TrueHD / Core, 48.0 KHz, 6 ch, Unknown / 640 Kbps, VBR / CBR English
Аудио #2: AC-3, 48.0 KHz, 6 ch, 640 Kbps, CBR Russian
Аудио #3: AC-3, 48.0 KHz, 6 ch, 640 Kbps, CBR Thai
Аудио #4: AC-3, 48.0 KHz, 6 ch, 640 Kbps, CBR Ukraine
Аудио #5: AC-3 Dolby Digital, 48.0 KHz, 2 ch, 192 Kbps, CBR English
Аудио #6: AC-3, 48.0 KHz, 6 ch, 640 Kbps, CBR English





Общее
Идентификатор : 0 (0x0)
Полное имя : E:TOTAL_RECALL_2012_TWO_DISC_EDITION_BLUEBIRDTOTAL_RECALL_2012_BD_BLUEBIRDBDMVSTREAM�0611.m2ts
Формат : BDAV
Формат/Информация : Blu-ray Video
Размер файла : 2,00 Гбайт
Продолжительность : 10 м.
Режим общего битрейта : Переменный
Общий поток : 28,1 Мбит/сек
Максимальный общий битрейт : 48,0 Мбит/сек

Видео
Идентификатор : 4113 (0x1011)
Идентификатор меню : 1 (0x1)
Формат : AVC
Формат/Информация : Advanced Video Codec
Профиль формата : High@L4.1
Параметр CABAC формата : Да
Параметр ReFrames формата : 4 кадра
Идентификатор кодека : 27
Продолжительность : 10 м.
Вид битрейта : Переменный
Битрейт : 23,5 Мбит/сек
Максимальный битрейт : 31,0 Мбит/сек
Ширина : 1920 пикселей
Высота : 1080 пикселей
Соотношение сторон : 16:9
Частота кадров : 23,976 кадра/сек
Цветовое пространство : YUV
Субдискретизация насыщенности : 4:2:0
Битовая глубина : 8 бит
Тип развёртки : Прогрессивная
Бит/(Пиксели*Кадры) : 0.473
Размер потока : 1,68 Гбайт (84%)

Аудио #1
Идентификатор : 4352 (0x1100)
Идентификатор меню : 1 (0x1)
Формат : TrueHD / AC-3
Расширение режима : CM (complete main)
Параметр Endianness формата : Big
Режим смешивания : Stream extension
Идентификатор кодека : 131
Продолжительность : 10 м.
Вид битрейта : Переменный / Постоянный
Битрейт : 640 Кбит/сек
Максимальный битрейт : 2661 Кбит/сек
Каналы : 6 каналов
Расположение каналов : Front: L C R, Side: L R, LFE
Частота : 48,0 КГц
Битовая глубина : 16 бит
Размер потока : 46,8 Мбайт (2%)

Аудио #2
Идентификатор : 4353 (0x1101)
Идентификатор меню : 1 (0x1)
Формат : AC-3
Формат/Информация : Audio Coding 3
Расширение режима : CM (complete main)
Параметр Endianness формата : Big
Идентификатор кодека : 129
Продолжительность : 10 м.
Вид битрейта : Постоянный
Битрейт : 640 Кбит/сек
Каналы : 6 каналов
Расположение каналов : Front: L C R, Side: L R, LFE
Частота : 48,0 КГц
Битовая глубина : 16 бит
Метод сжатия : С потерями
Размер потока : 46,8 Мбайт (2%)

Аудио #3
Идентификатор : 4354 (0x1102)
Идентификатор меню : 1 (0x1)
Формат : AC-3
Формат/Информация : Audio Coding 3
Расширение режима : CM (complete main)
Параметр Endianness формата : Big
Идентификатор кодека : 129
Продолжительность : 10 м.
Вид битрейта : Постоянный
Битрейт : 640 Кбит/сек
Каналы : 6 каналов
Расположение каналов : Front: L C R, Side: L R, LFE
Частота : 48,0 КГц
Битовая глубина : 16 бит
Метод сжатия : С потерями
Размер потока : 46,8 Мбайт (2%)

Аудио #4
Идентификатор : 4355 (0x1103)
Идентификатор меню : 1 (0x1)
Формат : AC-3
Формат/Информация : Audio Coding 3
Расширение режима : CM (complete main)
Параметр Endianness формата : Big
Идентификатор кодека : 129
Продолжительность : 10 м.
Вид битрейта : Постоянный
Битрейт : 640 Кбит/сек
Каналы : 6 каналов
Расположение каналов : Front: L C R, Side: L R, LFE
Частота : 48,0 КГц
Битовая глубина : 16 бит
Метод сжатия : С потерями
Размер потока : 46,8 Мбайт (2%)

Аудио #5
Идентификатор : 4356 (0x1104)
Идентификатор меню : 1 (0x1)
Формат : AC-3
Формат/Информация : Audio Coding 3
Профиль формата : Dolby Digital
Расширение режима : CM (complete main)
Параметр Endianness формата : Big
Идентификатор кодека : 129
Продолжительность : 10 м.
Вид битрейта : Постоянный
Битрейт : 192 Кбит/сек
Каналы : 2 канала
Расположение каналов : Front: L R
Частота : 48,0 КГц
Битовая глубина : 16 бит
Метод сжатия : С потерями
Размер потока : 14,0 Мбайт (1%)

Аудио #6
Идентификатор : 4357 (0x1105)
Идентификатор меню : 1 (0x1)
Формат : AC-3
Формат/Информация : Audio Coding 3
Расширение режима : CM (complete main)
Параметр Endianness формата : Big
Идентификатор кодека : 129
Продолжительность : 10 м.
Вид битрейта : Постоянный
Битрейт : 640 Кбит/сек
Каналы : 6 каналов
Расположение каналов : Front: L C R, Side: L R, LFE
Частота : 48,0 КГц
Битовая глубина : 16 бит
Метод сжатия : С потерями
Размер потока : 46,8 Мбайт (2%)

Текст #1
Идентификатор : 4608 (0x1200)
Идентификатор меню : 1 (0x1)
Формат : PGS
Идентификатор кодека : 144

Текст #2
Идентификатор : 4609 (0x1201)
Идентификатор меню : 1 (0x1)
Формат : PGS
Идентификатор кодека : 144

Текст #3
Идентификатор : 4610 (0x1202)
Идентификатор меню : 1 (0x1)
Формат : PGS
Идентификатор кодека : 144

Текст #4
Идентификатор : 4611 (0x1203)
Идентификатор меню : 1 (0x1)
Формат : PGS
Идентификатор кодека : 144

Текст #5
Идентификатор : 4612 (0x1204)
Идентификатор меню : 1 (0x1)
Формат : PGS
Идентификатор кодека : 144

Текст #6
Идентификатор : 4613 (0x1205)
Идентификатор меню : 1 (0x1)
Формат : PGS
Идентификатор кодека : 144

Текст #7
Идентификатор : 4614 (0x1206)
Идентификатор меню : 1 (0x1)
Формат : PGS
Идентификатор кодека : 144
Продолжительность : 10 м.
Задержка видео : 9 с. 342 мс.

Текст #8
Идентификатор : 4615 (0x1207)
Идентификатор меню : 1 (0x1)
Формат : PGS
Идентификатор кодека : 144
Продолжительность : 10 м.
Задержка видео : 9 с. 342 мс.

Текст #9
Идентификатор : 4616 (0x1208)
Идентификатор меню : 1 (0x1)
Формат : PGS
Идентификатор кодека : 144
Продолжительность : 10 м.
Задержка видео : 9 с. 342 мс.

Текст #10
Идентификатор : 4617 (0x1209)
Идентификатор меню : 1 (0x1)
Формат : PGS
Идентификатор кодека : 144
Продолжительность : 10 м.
Задержка видео : 9 с. 342 мс.

Текст #11
Идентификатор : 4618 (0x120A)
Идентификатор меню : 1 (0x1)
Формат : PGS
Идентификатор кодека : 144

Текст #12
Идентификатор : 4619 (0x120B)
Идентификатор меню : 1 (0x1)
Формат : PGS
Идентификатор кодека : 144

Текст #13
Идентификатор : 4620 (0x120C)
Идентификатор меню : 1 (0x1)
Формат : PGS
Идентификатор кодека : 144
Продолжительность : 10 м.
Задержка видео : 41 мс.

Текст #14
Идентификатор : 4621 (0x120D)
Идентификатор меню : 1 (0x1)
Формат : PGS
Идентификатор кодека : 144
Продолжительность : 10 м.
Задержка видео : 41 мс.

Текст #15
Идентификатор : 4622 (0x120E)
Идентификатор меню : 1 (0x1)
Формат : PGS
Идентификатор кодека : 144
Продолжительность : 10 м.
Задержка видео : 41 мс.

Текст #16
Идентификатор : 4623 (0x120F)
Идентификатор меню : 1 (0x1)
Формат : PGS
Идентификатор кодека : 144
Продолжительность : 10 м.
Задержка видео : 41 мс.

Текст #17
Идентификатор : 4624 (0x1210)
Идентификатор меню : 1 (0x1)
Формат : PGS
Идентификатор кодека : 144
Задержка видео : 1 с. 1 мс.

Текст #18
Идентификатор : 4625 (0x1211)
Идентификатор меню : 1 (0x1)
Формат : PGS
Идентификатор кодека : 144
Задержка видео : 1 с. 1 мс.

Текст #19
Идентификатор : 4626 (0x1212)
Идентификатор меню : 1 (0x1)
Формат : PGS
Идентификатор кодека : 144
Задержка видео : 1 с. 1 мс.

Текст #20
Идентификатор : 4627 (0x1213)
Идентификатор меню : 1 (0x1)
Формат : PGS
Идентификатор кодека : 144
Задержка видео : 1 с. 1 мс.




Скачать Вспомнить всё через торрент https://pic1.kartinco.top/images/111/49xcffgbzf.png Скачать, смотреть онлайн Вспомнить всё бесплантно в хорошем качестве Описание: Он — обычный рабочий-строитель, живущий в маленькой квартирке в захудалом районе города будущего где-то в Новой Азии. Хотя ... 9.5 10 2
Info! Золотая раздача, скачанное не засчитывается.
Торрент: Зарегистрирован [2013-02-21 08:24] · скачан: 6 раз
Статус: √ проверено
Размер: 64.06 GB
Как cкачать? Как скачать Вспомнить всё через торрент | UTorrent

% Раздел Тема Автор DL S | L
Фильмы (Blu-ray, BD-Remux, HDDVD) [ 64.19 GB ] Вспомнить всё​ / Total Recall | Дубляж | Blu-ray, Дубляж, лицензия shuller Скачать
1 | 0



Последний раз редактировалось: Ke$h@ (2013-02-21 09:02), всего редактировалось 1 раз

28-11-2019 20:33  


Отключить вcю реклaмy на сайте, в т.ч. и в плеере онлайн просмотра!

21-02-2013 08:54 Вспомнить всё Скачать торрент  

Ke$h@
титульную картинку уменьши до 700 пикселей
Для изменения статуса раздачи, после исправления уведомить в со ссылкой на раздачу



    Дорогой пользователь! Огромная просьба, поблагодарите релизера, оцените раздачу и оставьте свои комментарий, если Вы скачали Вспомнить всё через торрент бесплатно!!
    Комментировать посты могут только пользователи прошедшие не сложную регистрацию
    Показать сообщения:    


    Вспомнить всё через торрент
    Скачать бесплатно Вспомнить всё
    Вспомнить всё скачать торрент
    Вспомнить всё смотреть онлайн
    Cкачать фильм Вспомнить всё бесплатно
    Вспомнить всё скачать торрент в хорошем качестве
    Вспомнить всё смотреть онлайн бесплатно в хорошем качестве
    Вы не можете начинать темы
    Вы не можете отвечать на сообщения
    Вы не можете редактировать свои сообщения
    Вы не можете удалять свои сообщения
    Вы не можете голосовать в опросах
    Вы не можете прикреплять файлы к сообщениям
    Вы можете скачивать файлы
    Вспомнить всё / Total Recall [2012 г., фантастика, боевик, триллер, приключения, Blu-Ray, Дубляж, лицензия] / 2 disk set смотреть онлайн, скачать торрент picoco.icu