1 сезон

3 сезон

iTunes

1

iTunes

MVO

iTunes

13

1 сезон

RePack

30

Deluxe

pack

Лицензия

ВАЖНО

ИГРА 18+

pack

RePack

MK11

RePack

jed

RePack

fifa19

RePack

RDR2

RePack

NEED FOR SPEED™ PAYBACK

4 сезон

9 сезон

Бесстыжие 9 сезон

Все сериалы

все сериалы на PB.wtf

RePack

FAR CRY 5

Anonymous, доброй ночи, мы катастрофически не успеваем собрать деньги на оплату серверов, помогите нам пожалуйста 5,10,15р., для нас важна любая помощь . В качестве благодарности мы отключим Вам всю рекламу на сайте (укажите свой ник в строку Ваше имя)!

×
  
Magnet ссылка

Соучастник / Collateral (Майкл Манн) [2004 г., Триллер, Драма, Криминал, BDRip, DUB + MVO (Ukr) + Оригинал] piratbit.org

Соучастник через торрент piratbit.org

Размер: 2.18 GB | Добавлен: 8 лет 4 мес. назад | Торрент скачан:1048 раз
Скачать  

06-03-2013 15:49 Соучастник Скачать торрент  

Соучастник / Collateral
«Это могло случится и другой ночью»

Год выпуска: 2004
Страна: США
Жанр: Триллер, Драма, Криминал
Продолжительность: 01:59:56
Перевод: Дубляж + Профессиональный (многоголосый закадровый) - (Украинский ICTV) + Оригинал (Английский)

Режиссер: Майкл Манн
Продюссер: Майкл Манн, Джули Ричардсон, Брайан Х. Кэрролл
Сценарий: Стюарт Битти

Бюджет: $65 000 000
Премьера в мире: 5 августа 2004

В ролях: Том Круз, Джейми Фокс, Питер Берг, Ричард Т. Джонс, Марк Руффало, Джейсон Стэтхэм, Ирма П. Холл, Клеа Скотт, Майкл Бент, Томас Розалес-мл., Пол Эделстайн, Джессика Феррарон, Трой Бленделл, Чик Дэниэл, Жонелль Кеннеди, Стивен Козловски, Роджер Стоунбернер, Эдди Диаз, Джои Барнс, Джон Конвертино, Джош Круз, Анджело Тиффе, Луис Монкада, Майкл-Джон Вульф, Эдди Юнгми, Брэндон Молэйл, Спайк Сильвер, Аннабель Гутман, Марк Кубр, Тони Сагастизадо, Чарли Э. Шмидт мл., Джада Пинкетт Смит

Описание: Водитель такси оказывается в положении заложника, когда к нему в машину садится наемный убийца, заставляющий его наматывать километры по ночному Лос-Анджелесу от одной жертвы к другой. Нужно спасать — себя и последнюю намеченную убийцей цель…

Качество: BDRip (Исходник Blu-ray)
Формат: AVI
Видео кодек: XviD
Аудио кодек: AC3
Видео: 720х304, 23,976 fps, 1429 kbps, 0.272 bit/pixel
Аудио#1: 48 kHz, AC3 5.1, 384.00 kbps / Дубляж
Аудио#2: 48 kHz, AC3 5.1, 384.00 kbps / Профессиональный (многоголосый закадровый) - (Украинский ICTV)
Аудио#3: 48 kHz, AC3 5.1, 384.00 kbps / Оригинал (Английский)
Субтитры: Русские (Киномания, SDH), Русские (Tycoon), Английские
&
Общее
Полное имя : E:Фильмы МCollateral.2004.BDRip.Rus.Ukr.EngCollateral.2004.BDRip.avi
Формат : AVI
Формат/Информация : Audio Video Interleave
Профиль формата : OpenDML
Размер файла : 2,17 Гбайт
Продолжительность : 1 ч. 59 м.
Общий поток : 2596 Кбит/сек
Программа кодирования : VirtualDubModRus 1.5.10.2 (build 2542/release)
Библиотека кодирования : VirtualDubMod build 2542/release

Видео
Идентификатор : 0
Формат : MPEG-4 Visual
Профиль формата : Advanced Simple@L5
Параметр BVOP формата : 1
Параметр QPel формата : Нет
Параметр GMC формата : Без точки перехода
Параметр матрицы формата : Выборочная
Режим смешивания : Сжатый битовый поток
Идентификатор кодека : XVID
Идентификатор кодека/Подсказка : XviD
Продолжительность : 1 ч. 59 м.
Битрейт : 1429 Кбит/сек
Ширина : 720 пикселей
Высота : 304 пикселя
Соотношение сторон : 2,35:1
Частота кадров : 23,976 кадра/сек
Цветовое пространство : YUV
Субдискретизация насыщенности : 4:2:0
Битовая глубина : 8 бит
Тип развёртки : Прогрессивная
Метод сжатия : С потерями
Бит/(Пиксели*Кадры) : 0.272
Размер потока : 1,20 Гбайт (55%)
Библиотека кодирования : XviD 65

Аудио #1
Идентификатор : 1
Формат : AC-3
Формат/Информация : Audio Coding 3
Расширение режима : CM (complete main)
Параметр Endianness формата : Big
Идентификатор кодека : 2000
Продолжительность : 1 ч. 57 м.
Вид битрейта : Постоянный
Битрейт : 384 Кбит/сек
Каналы : 6 каналов
Расположение каналов : Front: L C R, Side: L R, LFE
Частота : 48,0 КГц
Битовая глубина : 16 бит
Метод сжатия : С потерями
Размер потока : 322 Мбайт (14%)
Выравнивание : Разделение по промежуткам
Продолжительность промежутка : 43 мс. (1,02 видеокадр)
Время предзагрузки промежутка : 500 мс.
Заголовок : Дубляж

Аудио #2
Идентификатор : 2
Формат : AC-3
Формат/Информация : Audio Coding 3
Расширение режима : CM (complete main)
Параметр Endianness формата : Big
Идентификатор кодека : 2000
Продолжительность : 1 ч. 59 м.
Вид битрейта : Постоянный
Битрейт : 384 Кбит/сек
Каналы : 6 каналов
Расположение каналов : Front: L C R, Side: L R, LFE
Частота : 48,0 КГц
Битовая глубина : 16 бит
Метод сжатия : С потерями
Размер потока : 329 Мбайт (15%)
Выравнивание : Разделение по промежуткам
Продолжительность промежутка : 42 мс. (1,00 видеокадр)
Время предзагрузки промежутка : 500 мс.
Заголовок : Профессиональный (многоголосый закадровый) - (Украинский ICTV)

Аудио #3
Идентификатор : 3
Формат : AC-3
Формат/Информация : Audio Coding 3
Расширение режима : CM (complete main)
Параметр Endianness формата : Big
Идентификатор кодека : 2000
Продолжительность : 1 ч. 59 м.
Вид битрейта : Постоянный
Битрейт : 384 Кбит/сек
Каналы : 6 каналов
Расположение каналов : Front: L C R, Side: L R, LFE
Частота : 48,0 КГц
Битовая глубина : 16 бит
Метод сжатия : С потерями
Размер потока : 329 Мбайт (15%)
Выравнивание : Разделение по промежуткам
Продолжительность промежутка : 42 мс. (1,00 видеокадр)
Время предзагрузки промежутка : 500 мс.


Соучастник скачать торрент


piratbit.org



Скачать Соучастник через торрент http://i53.fastpic.ru/big/2013/0306/7b/4313430d1fef737da88dfba391bcfd7b.png Скачать фильм Соучастник через торрент бесплантно в хорошем качестве Описание: Водитель такси оказывается в положении заложника, когда к нему в машину садится наемный убийца, заставляющий его наматывать ... 10 10 11
Info! Золотая раздача, скачанное не засчитывается.
Торрент: Зарегистрирован [2013-03-06 15:49] · скачан: 1 048 раз
Статус: √ проверено
Размер: 2.18 GB
Как cкачать? Как скачать Соучастник через торрент | UTorrent

28-11-2019 20:33  

Отключить всю рекламу на сайте

07-03-2013 02:43 Соучастник Скачать торрент  

Фильм СУПЕР, всем рекомендую! :)piratbit.org



18-09-2020 15:02 Соучастник Скачать торрент  

дайте скачать плиз!!!piratbit.org



    Дорогой пользователь! Огромная просьба, поблагодарите релизера, оцените раздачу и оставьте свои комментарий, если Вы скачали Соучастник через торрент бесплатно! Внесите свою лепту в развитие PiratBit!
    Комментировать посты могут только пользователи прошедшие не сложную регистрацию
    Показать сообщения:    

    Соучастник через торрент
    Скачать бесплатно Соучастник
    Соучастник скачать торрент
    Соучастник смотреть онлайн
    Cкачать фильм Соучастник бесплатно
    Соучастник скачать торрент в хорошем качестве
    Соучастник смотреть онлайн бесплатно в хорошем качестве


    Вы не можете начинать темы
    Вы не можете отвечать на сообщения
    Вы не можете редактировать свои сообщения
    Вы не можете удалять свои сообщения
    Вы не можете голосовать в опросах
    Вы не можете прикреплять файлы к сообщениям
    Вы можете скачивать файлы