Ссылка на приватное зеркало нашего сайта всего за 1$. Внимание количество ограничено!!!

2 сезон

iTunes

iTunes

1

iTunes

iTunes

iTunes

WEBRip

iTunes

30
pack

Новость дня

ВАЖНО

!!Акция!!

Alien_RageХит недели

RePack

Horizon Zero Dawn

ИГРА 18+

pack

RePack

jed

!!Акция!!

Alien_Rage

RePack

fifa19

RePack

Assassins Creed: Odyssey

RePack

NEED FOR SPEED™ PAYBACK

4 сезон

9 сезон

Бесстыжие 9 сезон

Все сериалы

все сериалы на PB.wtf

RePack

FAR CRY 5
  

Как трусливый Роберт Форд убил Джесси Джеймса / The Assassination of Jesse James by the Coward Robert Ford (Эндрю Доминик) [2007 г., драма, криминал, вестерн, биография, HDRip, MVO, закадровый] piratbit.org

Как трусливый Роберт Форд убил Джесси Джеймса через торрент piratbit.org

Размер: 1.46 GB | Добавлен: 7 лет 6 мес. назад | Торрент скачан:211 раз
Скачать  

08-03-2013 16:14 Как трусливый Роберт Форд убил Джесси Джеймса Скачать торрент  


Как трусливый Роберт Форд убил Джесси Джеймса / The Assassination of Jesse James
by the Coward Robert Ford


Год выпуска: 2007
Страна: США, Канада, Великобритания
Жанр: драма, криминал, вестерн, биография
Продолжительность: 02:39:40
Перевод: Профессиональный (многоголосый, закадровый)
Режиссер: Эндрю Доминик
Продюссер: Эндрю Доминик, Рон Хансен
Сценарий: Джулс Дэйли, Деде Гарднер, Брэд Питт

В ролях: Брэд Питт, Кейси Аффлек, Сэм Рокуэлл, Пол Шнайдер, Джереми Реннер, Мэри-Луиз Паркер, Бруклин Пру, Дастин Боллинджер, Сэм Шепард, Гаррет Диллахант

Описание: История самого печально известного преступника Америки времен Дикого Запада. Дерзкий и непредсказуемый Джесси Джеймс — легендарный вор. Он всегда тщательно планирует свои нападения, и ведет войну с теми, кто наживает деньги и славу, прикрываясь его именем.
В 1881 году в ряды банды Джеймса вступает Роберт Форд. Со временем Джесси падает в глазах Форда, который никогда не отличался смелостью. Никто и не мог предположить, что именно этот трусливый юнец, возмущенный поведением главаря, отважится на убийство Джесси.
Качество: HDRip
Формат: AVI
Видео кодек: XviD
Аудио кодек: MP3
Видео: 720x304 (2.37:1), 23.976 fps, XviD build 47 ~1170 kbps avg, 0.22 bit/pixel
Аудио: 48 kHz, MPEG Layer 3, 2 ch, ~128.00 kbps avg


Общее
Полное имя : Как трусливый Роберт Форд убил Джесси Джеймса.avi
Формат : AVI
Формат/Информация : Audio Video Interleave
Размер файла : 1,46 Гбайт
Продолжительность : 2 ч. 39 м.
Общий поток : 1308 Кбит/сек
Программа кодирования : VirtualDubMod 1.5.10.2 (build 2540/release)
Библиотека кодирования : VirtualDubMod build 2540/release

Видео
Идентификатор : 0
Формат : MPEG-4 Visual
Профиль формата : Advanced Simple@L5
Параметр BVOP формата : 1
Параметр QPel формата : Нет
Параметр GMC формата : Без точки перехода
Параметр матрицы формата : Default (MPEG)
Идентификатор кодека : XVID
Идентификатор кодека/Подсказка : XviD
Продолжительность : 2 ч. 39 м.
Битрейт : 1171 Кбит/сек
Ширина : 720 пикселей
Высота : 304 пикселя
Соотношение сторон : 2,35:1
Частота кадров : 23,976 кадра/сек
Цветовое пространство : YUV
Субдискретизация насыщенности : 4:2:0
Битовая глубина : 8 бит
Тип развёртки : Прогрессивная
Метод сжатия : С потерями
Бит/(Пиксели*Кадры) : 0.223
Размер потока : 1,31 Гбайт (90%)
Библиотека кодирования : XviD 1.2.0.dev47 (UTC 2006-11-01)

Аудио
Идентификатор : 1
Формат : MPEG Audio
Версия формата : Version 1
Профиль формата : Layer 3
Идентификатор кодека : 55
Идентификатор кодека/Подсказка : MP3
Продолжительность : 2 ч. 39 м.
Вид битрейта : Постоянный
Битрейт : 128 Кбит/сек
Каналы : 2 канала
Частота : 48,0 КГц
Метод сжатия : С потерями
Размер потока : 146 Мбайт (10%)
Выравнивание : Соединение по промежуткам
Продолжительность промежутка : 42 мс. (1,00 видеокадр)
Время предзагрузки промежутка : 504 мс.
Библиотека кодирования : LAME3.97
Настройки программы : -m s -V 4 -q 2 -lowpass 17 -b 128

Скриншотыскриншот  скриншот  скриншот  скриншот  скриншот  скриншот  piratbit.org



Скачать Как трусливый Роберт Форд убил Джесси Джеймса через торрент http://pic.kartinco.top/images/2/2lrqr4g4p4.jpg Скачать фильм Как трусливый Роберт Форд убил Джесси Джеймса через торрент бесплантно в хорошем качестве Описание: История самого печально известного преступника Америки времен Дикого Запада. Дерзкий и непредсказуемый Джесси Джеймс — ... 10 10 7
Info! Золотая раздача, скачанное не засчитывается.
Торрент: Зарегистрирован [2013-03-08 16:14] · скачан: 211 раз
Статус: √ проверено
Размер: 1.46 GB
Как cкачать? Как скачать Как трусливый Роберт Форд убил Джесси Джеймса через торрент | qTorrent

% Раздел Тема Автор DL S | L
Фильмы 2006-2008 [ 2.05 GB ] Как трусливый Роберт Форд убил Джесси Джеймса / Assassination of Jesse James by the Coward Robert Ford The [2007 биография история DVDRip] VintMosina Скачать
1 | 0

28-11-2019 20:33  

Отключить всю рекламу на сайте

08-03-2013 16:31 Как трусливый Роберт Форд убил Джесси Джеймса Скачать торрент  

Фильм отличный! Всем любителям Брэда Пита и вестернов обязательно смотреть=)piratbit.org



08-03-2013 16:53 Как трусливый Роберт Форд убил Джесси Джеймса Скачать торрент  

Отличный фильм. Слегка затянут, но в конце понимаешь, что это было необходмо.piratbit.org



    Дорогой пользователь! Огромная просьба, поблагодарите релизера, оцените раздачу и оставьте свои комментарий, если Вы скачали Как трусливый Роберт Форд убил Джесси Джеймса через торрент бесплатно! Внесите свою лепту в развитие PiratBit!
    Комментировать посты могут только пользователи прошедшие не сложную регистрацию
    Показать сообщения:    

    Как трусливый Роберт Форд убил Джесси Джеймса через торрент
    Скачать бесплатно Как трусливый Роберт Форд убил Джесси Джеймса
    Как трусливый Роберт Форд убил Джесси Джеймса скачать торрент
    Как трусливый Роберт Форд убил Джесси Джеймса смотреть онлайн
    Cкачать фильм Как трусливый Роберт Форд убил Джесси Джеймса бесплатно
    Как трусливый Роберт Форд убил Джесси Джеймса скачать торрент в хорошем качестве
    Как трусливый Роберт Форд убил Джесси Джеймса смотреть онлайн бесплатно в хорошем качестве


    Вы не можете начинать темы
    Вы не можете отвечать на сообщения
    Вы не можете редактировать свои сообщения
    Вы не можете удалять свои сообщения
    Вы не можете голосовать в опросах
    Вы не можете прикреплять файлы к сообщениям
    Вы можете скачивать файлы