Доктор Стрэндж

Лицензия

Добыча

Дубляж

Уэнсдэй

1 сезон

Тор

Дубляж

В эфире

Дубляж

Там, где раки поют

MVO

Властелин колец

1 сезон

Deluxe

pack

Рекомендуем

30

Пиратка

ВАЖНО

ВАЖНО

Ghostwire

Пиратка

jed

RePack

nioh2

RePack

RDR2

RePack

NEED FOR SPEED™ PAYBACK

RePack

скачать торрент

Кинопоиск HD

Острые козырьки 6 сезон

6 сезон

FAR CRY 6

RePack

скачать торрент

Лицензия

скачать торрент

MVO

1

1 сезон

скачать торрент

1 сезон

скачать торрент

Лицензия

  

Вспоминая 1942 / Yi jiu si er / Back To 1942 (Фэн Сяоган) [2012 г., драма, BDRip 720p, VOА. Дольский]

Вспоминая 1942 через торрент piratbit.org

Размер: 7.6 GB | Добавлен: 9 лет 8 мес. назад | Торрент скачан:82 раза
Смотреть онлайн | Скачать   

14-03-2013 13:45 Вспоминая 1942 Скачать торрент  

Вспоминая 1942 / Yi jiu si er / Back To 1942
Год выпуска: 2012
Страна: Китай
Жанр: драма,
Продолжительность: 02:26:27
Перевод: Профессиональный (одноголосый) А. Дольский
Субтитры: Английские

Режиссер: Фэн Сяоган
Продюссер: Саньпин Хань, Питер Лам, Гуанцюань Лю
Сценарий: Чжэньюнь Лю

Бюджет: $33 000 000
Премьера в мире: 11 ноября 2012

Мировой рейтинг IMDB 6.50 (692)


В ролях: Чжан Гуоли, Чэнь Даомин, Ли Сюэцзянь, Чжан Ханьюй, Эдриан Броуди, Тим Роббинс, Сюй Фань, Альфред Синг, Алек Су, Мо Чжан,

Описание: 1942 год. Китай сотрясает вторая мировая война. Застрявшая в феодализме страна оккупирована Японией. Засуха и неурожай. Приближается голод, который может уничтожить миллионы людей. Местные правители закрывают глаза на происходящее, увлекшись внутренними распрями. Американский журналист и дипломат пытаются спасти людей, которые обречены на смерть.

Качество: BDRip 720p
Формат: MKV
Видео кодек: H.264x
Аудио кодек: AC3
Видео: AVC at 6150 Кбит/сек Aspect : 1280 x 536 (2.388) at 24.000 fps
Аудио#1: AC-3 at 640 Кбит/сек Infos : 6 каналов, 48,0 КГц Language : ru
Аудио#2: AC-3 at 640 Кбит/сек Infos : 6 каналов, 48,0 КГц Language : zh

Код:

Общее
Уникальный идентификатор                 : 231788619483054893881889002199685280840 (0xAE60DD42F71DFDF6AC537EF16E0C3448)
Полное имя                               : C:UsersСлавонDesktopBack to 1942.2012.BDRip.720p.mkv
Формат                                   : Matroska
Версия формата                           : Version 2
Размер файла                             : 7,60 Гбайт
Продолжительность                        : 2 ч. 26 м.
Общий поток                              : 7432 Кбит/сек
Название фильма                          : Вспоминая 1942 / Yi jiu si er / Back to 1942.2012  Release for HDtracker& MeGUI
Дата кодирования                         : UTC 2013-02-20 07:08:54
Программа кодирования                    : mkvmerge v3.4.0 ('Rapunzel') сборка от May 15 2010 09:38:20
Библиотека кодирования                   : libebml v0.8.0 + libmatroska v0.9.0

Видео
Идентификатор                            : 1
Формат                                   : AVC
Формат/Информация                        : Advanced Video Codec
Профиль формата                          : High@L4.1
Параметр CABAC формата                   : Да
Параметр ReFrames формата                : 8 кадров
Идентификатор кодека                     : V_MPEG4/ISO/AVC
Продолжительность                        : 2 ч. 26 м.
Битрейт                                  : 6150 Кбит/сек
Ширина                                   : 1280 пикселей
Высота                                   : 536 пикселей
Соотношение сторон                       : 2,40:1
Режим частоты кадров                     : Постоянный
Частота кадров                           : 24,000 кадра/сек
Цветовое пространство                    : YUV
Субдискретизация насыщенности            : 4:2:0
Битовая глубина                          : 8 бит
Тип развёртки                            : Прогрессивная
Бит/(Пиксели*Кадры)                      : 0.373
Размер потока                            : 6,14 Гбайт (81%)
Библиотека кодирования                   : x264 core 129 r2245 bc13772
Настройки программы                      : cabac=1 / ref=8 / deblock=1:-3:-3 / analyse=0x3:0x133 / me=umh / subme=11 / psy=1 / psy_rd=1.05:0.00 / mixed_ref=1 / me_range=32 / chroma_me=1 / trellis=2 / 8x8dct=1 / cqm=0 / deadzone=21,11 / fast_pskip=0 / chroma_qp_offset=-2 / threads=12 / lookahead_threads=2 / sliced_threads=0 / nr=0 / decimate=1 / interlaced=0 / bluray_compat=0 / constrained_intra=0 / bframes=6 / b_pyramid=2 / b_adapt=2 / b_bias=0 / direct=1 / weightb=1 / open_gop=0 / weightp=1 / keyint=240 / keyint_min=22 / scenecut=40 / intra_refresh=0 / rc_lookahead=60 / rc=2pass / mbtree=1 / bitrate=6150 / ratetol=1.0 / qcomp=0.70 / qpmin=0 / qpmax=69 / qpstep=4 / cplxblur=20.0 / qblur=0.5 / vbv_maxrate=50000 / vbv_bufsize=62500 / nal_hrd=none / ip_ratio=1.30 / aq=2:1.00
Язык                                     : English
Default                                  : Нет
Forced                                   : Нет

Аудио #1
Идентификатор                            : 2
Формат                                   : AC-3
Формат/Информация                        : Audio Coding 3
Расширение режима                        : CM (complete main)
Параметр Endianness формата              : Big
Идентификатор кодека                     : A_AC3
Продолжительность                        : 2 ч. 26 м.
Вид битрейта                             : Постоянный
Битрейт                                  : 640 Кбит/сек
Каналы                                   : 6 каналов
Расположение каналов                     : Front: L C R, Side: L R, LFE
Частота                                  : 48,0 КГц
Битовая глубина                          : 16 бит
Метод сжатия                             : С потерями
Размер потока                            : 670 Мбайт (9%)
Заголовок                                : AC3 5.1 AVO-А.Дольский
Язык                                     : Russian
Default                                  : Да
Forced                                   : Нет

Аудио #2
Идентификатор                            : 3
Формат                                   : AC-3
Формат/Информация                        : Audio Coding 3
Расширение режима                        : CM (complete main)
Параметр Endianness формата              : Big
Идентификатор кодека                     : A_AC3
Продолжительность                        : 2 ч. 26 м.
Вид битрейта                             : Постоянный
Битрейт                                  : 640 Кбит/сек
Каналы                                   : 6 каналов
Расположение каналов                     : Front: L C R, Side: L R, LFE
Частота                                  : 48,0 КГц
Битовая глубина                          : 16 бит
Метод сжатия                             : С потерями
Размер потока                            : 670 Мбайт (9%)
Заголовок                                : AC3 5.1 Original
Язык                                     : Chinese
Default                                  : Нет
Forced                                   : Нет

Текст
Идентификатор                            : 4
Формат                                   : UTF-8
Идентификатор кодека                     : S_TEXT/UTF8
Идентификатор кодека/Информация          : UTF-8 Plain Text
Заголовок                                : Full
Язык                                     : English
Default                                  : Нет
Forced                                   : Нет



Вспоминая 1942 скачать торрент





Скачать Вспоминая 1942 через торрент http://i53.fastpic.ru/big/2013/0314/54/e355cf62fc4ade965e4c3281b7995654.jpg Скачать, смотреть онлайн Вспоминая 1942 бесплантно в хорошем качестве Описание: 1942 год. сотрясает вторая мировая война. Застрявшая в феодализме страна оккупирована Японией. Засуха и неурожай. ... 10 10 1
Info! Золотая раздача, скачанное не засчитывается.
Торрент: Зарегистрирован [2013-03-14 13:45] · скачан: 82 раз
Статус: √ проверено
Размер: 7.6 GB
Как cкачать? Как скачать Вспоминая 1942 через торрент | UTorrent

% Раздел Тема Автор DL S | L
Фильмы (DVD фильмы) [ 7.42 GB ] Вспоминая 1942 / Yi jiu si er | | Вспоминая 1942 / Yi jiu si er (Фэн Сяоган / Xiaogang Feng voovaz Скачать
1 | 0
Азиатские фильмы [ 2.18 GB ] Вспоминая 1942 / Yi jiu si er | Лицензия | HDRip,Профессиональный [Дубляж - Лицензия Ворон Скачать
1 | 0
Азиатские фильмы [ 1.46 GB ] Вспоминая 1942 / Yi jiu si er | Лицензия | HDRip,Профессиональный [Дубляж - Лицензия Ворон Скачать
1 | 0
Азиатские фильмы [ 1.46 GB ] Вспоминая 1942 / Yi jiu si er | Дубляж | HDRip, Дубляж [НТВ+ Ворон Скачать
1 | 0

28-11-2019 20:33  


Отключить вcю реклaмy на сайте, в т.ч. и в плеере онлайн просмотра!

    Дорогой пользователь! Огромная просьба, поблагодарите релизера, оцените раздачу и оставьте свои комментарий, если Вы скачали Вспоминая 1942 через торрент бесплатно!!
    Комментировать посты могут только пользователи прошедшие не сложную регистрацию
    Показать сообщения:    


    Вспоминая 1942 через торрент
    Скачать бесплатно Вспоминая 1942
    Вспоминая 1942 скачать торрент
    Вспоминая 1942 смотреть онлайн
    Cкачать фильм Вспоминая 1942 бесплатно
    Вспоминая 1942 скачать торрент в хорошем качестве
    Вспоминая 1942 смотреть онлайн бесплатно в хорошем качестве
    Вы не можете начинать темы
    Вы не можете отвечать на сообщения
    Вы не можете редактировать свои сообщения
    Вы не можете удалять свои сообщения
    Вы не можете голосовать в опросах
    Вы не можете прикреплять файлы к сообщениям
    Вы можете скачивать файлы
    Вспоминая 1942 / Yi jiu si er / Back To 1942 [2012 г., драма, BDRip 720p, VOА. Дольский] смотреть онлайн, скачать торрент picoco.icu