2 сезон

iTunes

MVO

1

2 сезон

iTunes

iTunes

1 сезон

RePack

30

Ultimate

ВАЖНО

ИГРА 18+

pack

RePack

MK11
pack

Легкие деньги

RePack

jed

RePack

fifa19

RePack

RDR2

RePack

NEED FOR SPEED™ PAYBACK

4 сезон

9 сезон

Бесстыжие 9 сезон

Все сериалы

все сериалы на PB.wtf

RePack

FAR CRY 5

Anonymous, добрый день, мы не успеваем собрать деньги на оплату серверов за декабрь и январь, помогите нам пожалуйста в это трудное время. В качестве благодарности мы отключим Вам всю рекламу на сайте (укажите свой ник в строку Ваше имя)!

×
  
Magnet ссылка

Пока ночь не разлучит (Борис Хлебников) [2012 г., комедия, BDRip, Оригинал,лицензия] piratbit.org

Пока ночь не разлучит через торрент piratbit.org

Размер: 745 MB | Добавлен: 7 лет 10 мес. назад | Торрент скачан:416 раз
Скачать  

15-03-2013 02:50 Пока ночь не разлучит Скачать торрент  

Пока ночь не разлучит
Год выпуска: 2012
Страна: Россия
Жанр: комедия,
Продолжительность: 01:02:40
Перевод: Оригинал [лицензия]
Тип релиза: Лицензия

Режиссер: Борис Хлебников
Продюссер: Елена Степанищева, Заур Болотаев, Александр Плотников
Сценарий: Александр Родионов

Мировой рейтинг IMDB 6.10 (100)


В ролях: Александр Яценко, Евгений Сытый, Сахат Дурсунов, Алена Долецкая, Мария Шалаева, Александр Робак, Татьяна Токарева, Сергей Шнуров, Василий Уткин, Василий Бархатов,

Описание: О чем на самом деле говорят мужчины и женщины? Фильм основан на реальных историях, подслушанных в одном из очень дорогих столичных ресторанов. Один безумный день из жизни заведения закручивает в хороводе знаменитых артистов, вальяжных бизнесменов, рублёвских содержанок и золотую молодёжь. Череда эпизодов скреплена историей двух официантов — толстого и тонкого. Оба они безнадёжно влюблены: один в свою жену, другой в чужую. А настоящая любовь рождается на кухне...

Качество: BDRip
Формат: AVI
Видео кодек: XviD
Аудио кодек: AC3
Видео: 720x400 (1.80:1), 24 fps, XviD build 50 ~1203 kbps avg, 0.17 bit/pixel
Аудио#1: 48 kHz, AC3 Dolby Digital, 3/2 (L,C,R,l,r) + LFE ch, ~448 kbps
Релиз от:
General
Complete name : F:ГОТОВЫЕ ЗАГРУЗКИPoka.noch.ne.razluchit.2012.O.BDRip.IRONCLUB.avi
Format : AVI
Format/Info : Audio Video Interleave
File size : 745 MiB
Duration : 1h 2mn
Overall bit rate : 1 661 Kbps
Movie name : Poka.noch.ne.razluchit.2012.O.BDRip.IRONCLUB
Director :
Genre : Comedy
Writing application : VirtualDubMod 1.5.10.3 | www.virtualdub-fr.org || (build 2550/release)
Original source form/Name : Movie
Copyright :

Video
ID : 0
Format : MPEG-4 Visual
Format profile : Advanced Simple@L5
Format settings, BVOP : 1
Format settings, QPel : No
Format settings, GMC : No warppoints
Format settings, Matrix : Custom
Codec ID : XVID
Codec ID/Hint : XviD
Duration : 1h 2mn
Bit rate : 1 204 Kbps
Width : 720 pixels
Height : 400 pixels
Display aspect ratio : 16:9
Frame rate : 24.000 fps
Color space : YUV
Chroma subsampling : 4:2:0
Bit depth : 8 bits
Scan type : Progressive
Compression mode : Lossy
Bits/(Pixel*Frame) : 0.174
Stream size : 540 MiB (72%)
Writing library : XviD 1.2.1 (UTC 2008-12-04)

Audio
ID : 1
Format : AC-3
Format/Info : Audio Coding 3
Mode extension : CM (complete main)
Format settings, Endianness : Big
Codec ID : 2000
Duration : 1h 2mn
Bit rate mode : Constant
Bit rate : 448 Kbps
Channel(s) : 6 channels
Channel positions : Front: L C R, Side: L R, LFE
Sampling rate : 48.0 KHz
Bit depth : 16 bits
Compression mode : Lossy
Stream size : 201 MiB (27%)
Alignment : Split accross interleaves
Interleave, duration : 42 ms (1.00 video frame)
Interleave, preload duration : 500 ms


Пока ночь не разлучит скачать торрент


piratbit.org



Скачать Пока ночь не разлучит через торрент http://pic.kartinco.top/images/2/dkd9s2e21h.png Скачать фильм Пока ночь не разлучит через торрент бесплантно в хорошем качестве Описание: О чем на самом деле говорят мужчины и женщины? Фильм основан на реальных историях, подслушанных в одном из очень дорогих ... 7.5 10 4
Info! Золотая раздача, скачанное не засчитывается.
Торрент: Зарегистрирован [2013-03-15 02:50] · скачан: 416 раз
Статус: √ проверено
Размер: 745 MB
Как cкачать? Как скачать Пока ночь не разлучит через торрент | UTorrent

% Раздел Тема Автор DL S | L
Наши фильмы 2012 [ 2.05 GB ] Пока ночь не разлучит [2012 BDRip] coc900 Скачать
1 | 0
Наши фильмы (DVD фильмы) [ 3.82 GB ] Пока ночь не разлучит [2012 DVD5] R5 voovaz Скачать
1 | 0

28-11-2019 20:33  

Отключить всю рекламу на сайте

16-03-2013 11:30 Пока ночь не разлучит Скачать торрент  

Спасибо автору за раздачу!!! Прекрасный фильм, думающий!!!????piratbit.org



    Дорогой пользователь! Огромная просьба, поблагодарите релизера, оцените раздачу и оставьте свои комментарий, если Вы скачали Пока ночь не разлучит через торрент бесплатно! Внесите свою лепту в развитие PiratBit!
    Комментировать посты могут только пользователи прошедшие не сложную регистрацию
    Показать сообщения:    

    Пока ночь не разлучит через торрент
    Скачать бесплатно Пока ночь не разлучит
    Пока ночь не разлучит скачать торрент
    Пока ночь не разлучит смотреть онлайн
    Cкачать фильм Пока ночь не разлучит бесплатно
    Пока ночь не разлучит скачать торрент в хорошем качестве
    Пока ночь не разлучит смотреть онлайн бесплатно в хорошем качестве


    Вы не можете начинать темы
    Вы не можете отвечать на сообщения
    Вы не можете редактировать свои сообщения
    Вы не можете удалять свои сообщения
    Вы не можете голосовать в опросах
    Вы не можете прикреплять файлы к сообщениям
    Вы можете скачивать файлы