Ссылка на приватное зеркало нашего сайта всего за 1$. Внимание количество ограничено!!!

2 сезон

iTunes

iTunes

1

iTunes

iTunes

iTunes

WEBRip

iTunes

30
pack

Забери бонус

ВАЖНО

!!Акция!!

Alien_RageХит недели

RePack

RESIDENT EVIL 3: NEMESIS REMAKE

ИГРА 18+

pack

RePack

jed

!!Акция!!

Alien_Rage

RePack

fifa19

RePack

Assassins Creed: Odyssey

RePack

NEED FOR SPEED™ PAYBACK

4 сезон

9 сезон

Бесстыжие 9 сезон

Все сериалы

все сериалы на PB.wtf

RePack

FAR CRY 5
  

Город бога 2 / Cidade dos Homens (Паоло Морелли) [2008 г., Криминал, драма, DVDRip-AVC, MVO (закадровый)] piratbit.org

Город бога 2 через торрент piratbit.org

Качают: 5 [ 0 KB/s ]
Размер: 1.37 GB | Добавлен: 7 лет 6 мес. назад | Торрент скачан:131 раз
Скачать  

29-03-2013 13:07 Город бога 2 Скачать торрент  

Город бога 2 / Cidade dos Homens

Год выпуска: 2007
Страна: Бразилия
Жанр: Криминал, драма
Продолжительность: 01:46:12
Перевод: Профессиональный многоголосый (закадровый)
Тип релиза: Пиратка

Режиссер: Паоло Морелли
Продюссер: Андреа Барата Рибейро, Бел Берлинк, Фернанду Мейреллиш
Сценарий: Елена Суарез, Паоло Морелли

Премьера в мире: 31 августа 2007



В ролях: Дуглас Силва, Дарлан Кунья, Джонатан Хаагенсен, Родриго Дос Сантос, Камила Монтейро, Наима Силва, Лучано Видиганс, Педро Энрике, Маурисио Гонсалвез

Описание: Лучшие друзья — Ацеролла «Туз» и Ларанинья «Уоллес» готовы отпраздновать 18-летие «Уоллеса». Ацеролла безнадежно пытается найти своего отца, а Ларанинья переживает, что его жена уезжает на работу в другой город, оставляя его одного с маленьким сыном. Но все их мечты и надежды рушатся, когда начинается городская война, друзья оказываются по разные стороны баррикад. Победит ли дружба бессмысленную войну? Смогут ли они забыть прошлое?

Качество: DVDRip-AVC
Формат: MKV
Видео кодек: H.264
Аудио кодек: AC3
Видео: 1391 kb/s, 720x384, 23.976 fps
Аудио: AC3, 448 kb/s (6 ch)
[/URL]
[/URL]
[/URL]
[/URL]
[/URL]
[/URL]
[/URL]
[/URL]
Общее
Полное имя : E:Скаченные2-По жанрамХудожественныйГород Бога-2.2007.DVDRip.mkv
Формат : Matroska
Версия формата : Version 1
Размер файла : 1,37 Гбайт
Продолжительность : 1 ч. 46 м.
Общий поток : 1840 Кбит/сек
Название фильма : -=Noname Rip=-
Дата кодирования : UTC 2008-11-08 07:47:10
Программа кодирования : mkvmerge v2.4.0 ('Fumbling Towards Ecstasy') built on Oct 11 2008 20:13:15
Библиотека кодирования : libebml v0.7.7 + libmatroska v0.8.1
Attachment : Yes

Видео
Идентификатор : 1
Формат : AVC
Формат/Информация : Advanced Video Codec
Профиль формата : High@L3.0
Параметр CABAC формата : Да
Параметр ReFrames формата : 7 кадров
Идентификатор кодека : V_MPEG4/ISO/AVC
Продолжительность : 1 ч. 46 м.
Битрейт : 1391 Кбит/сек
Ширина : 720 пикселей
Высота : 384 пикселя
Соотношение сторон : 1,85:1
Режим частоты кадров : Постоянный
Частота кадров : 23,976 кадра/сек
Цветовое пространство : YUV
Субдискретизация насыщенности : 4:2:0
Битовая глубина : 8 бит
Тип развёртки : Прогрессивная
Бит/(Пиксели*Кадры) : 0.210
Размер потока : 1,01 Гбайт (74%)
Заголовок : Город бога 2 / Cidade dos Homens (2007) x264 1391 Kbps
Библиотека кодирования : x264 core 65 r1019kMod a5ac6a5
Язык : English
Default : Да
Forced : Нет

Аудио
Идентификатор : 2
Формат : AC-3
Формат/Информация : Audio Coding 3
Расширение режима : CM (complete main)
Параметр Endianness формата : Big
Идентификатор кодека : A_AC3
Продолжительность : 1 ч. 46 м.
Вид битрейта : Постоянный
Битрейт : 448 Кбит/сек
Каналы : 6 каналов
Расположение каналов : Front: L C R, Side: L R, LFE
Частота : 48,0 КГц
Битовая глубина : 16 бит
Метод сжатия : С потерями
Задержка видео : 16 мс.
Размер потока : 340 Мбайт (24%)
Заголовок : AC3 5.1 448Kbps
Язык : Russian
Default : Да
Forced : Нет
piratbit.org



Скачать Город бога 2 через торрент http://i33.fastpic.ru/big/2012/0406/65/8be90e443cdc8dad91d36aa149ce5865.jpg Скачать фильм Город бога 2 через торрент бесплантно в хорошем качестве Описание: Лучшие друзья — Ацеролла «Туз» и Ларанинья «Уоллес» готовы отпраздновать 18-летие «Уоллеса». Ацеролла безнадежно пытается найти ... 9.9 10 9
Info! Золотая раздача, скачанное не засчитывается.
Торрент: Зарегистрирован [2013-03-29 13:07] · скачан: 131 раз
Статус: √ проверено
Размер: 1.37 GB
Как cкачать? Как скачать Город бога 2 через торрент | qTorrent

% Раздел Тема Автор DL S | L
Фильмы [HD 720p, 1080p] (Хороший звук DUB, MVO) [ 4.7 GB ] Город бога 2 / Cidade dos Homens [2007 BDRip 720p MVO ] Артронах Скачать
1 | 1

28-11-2019 20:33  

Отключить всю рекламу на сайте

29-03-2013 13:35 Город бога 2 Скачать торрент  

Город бога 2 ничего не имеет общего с первой частью, оригинальное название "Город мужчин". Прокатчики как обычно пытаются срубить бабла у потребителей, вводя их в заблуждение. Хотя режиссёр вроде как один и тот же.piratbit.org



    Дорогой пользователь! Огромная просьба, поблагодарите релизера, оцените раздачу и оставьте свои комментарий, если Вы скачали Город бога 2 через торрент бесплатно! Внесите свою лепту в развитие PiratBit!
    Комментировать посты могут только пользователи прошедшие не сложную регистрацию
    Показать сообщения:    

    Город бога 2 через торрент
    Скачать бесплатно Город бога 2
    Город бога 2 скачать торрент
    Город бога 2 смотреть онлайн
    Cкачать фильм Город бога 2 бесплатно
    Город бога 2 скачать торрент в хорошем качестве
    Город бога 2 смотреть онлайн бесплатно в хорошем качестве


    Вы не можете начинать темы
    Вы не можете отвечать на сообщения
    Вы не можете редактировать свои сообщения
    Вы не можете удалять свои сообщения
    Вы не можете голосовать в опросах
    Вы не можете прикреплять файлы к сообщениям
    Вы можете скачивать файлы