Достать ножи: Стеклянная луковица

MVO

Добыча

Дубляж

Уэнсдэй

1 сезон

Тор

Дубляж

13 клиническая

1 сезон

Жестокая ночь

MVO

Одни из нас

1 сезон

Deluxe

pack

Рекомендуем

30

Пиратка

ВАЖНО

ВАЖНО

Ghostwire

Пиратка

jed

RePack

nioh2

RePack

RDR2

RePack

NEED FOR SPEED™ PAYBACK

RePack

скачать торрент

Кинопоиск HD

Острые козырьки 6 сезон

6 сезон

FAR CRY 6

RePack

скачать торрент

Лицензия

скачать торрент

MVO

1

1 сезон

скачать торрент

1 сезон

скачать торрент

Лицензия

  

Джей и Молчаливый Боб наносят ответный удар / Jay and Silent Bob Strike Back (Кевин Смит) [2001 г., Комедия, BD-Remux [1080p], Дублированный, MVO, Авторский одноголосый]

Джей и Молчаливый Боб наносят ответный удар через торрент piratbit.org

Размер: 24.67 GB | Добавлен: 9 лет 9 мес. назад | Торрент скачан:25 раз
Смотреть онлайн | Скачать | Поддержите нас   

29-03-2013 19:05 Джей и Молчаливый Боб наносят ответный удар Скачать торрент  

Джей и Молчаливый Боб наносят ответный удар / Jay and Silent Bob Strike Back
Год выпуска: 2001
Страна: США
Жанр: Комедия
Продолжительность: 01:45:07
Перевод: Дублированный, Профессиональный многоголосый, Авторский одноголосый
Тип релиза: Лицензия
Субтитры: Русские [Вшитые отключаемые]
Режиссер: Кевин Смит
В ролях: Джейсон Мьюз, Кевин Смит, Шеннон Элизабет, Уилл Феррелл, Элиза Душку, Джейсон Ли, Эли Лартер, Дженнифер Швалбах Смит, Крис Рок, Джефф Андерсон, Брайан О’Хэллоран, Джадд Нельсон, Джордж Карлин, Кэрри Фишер, Шонн Уильям Скотт, Джон Стюарт, Трэйси Морган, Джейми Кеннеди, Марк Хэмилл, Эми Ноубл, Харли Куинн Смит, Эвер Кэррадайн, Брайан Эндрю Сейбл, Гэвин Брукс, Джон Уиллюнг, Джэйк Ричардсон, Ник Феллинджер, Винсент Перейра, Эрнест О’Доннелл, Танго, Марк Блукас, Мэттью Джеймс, Джейн Сильвия, Кармен Ллайвелин, Дэн Этеридж, Эрик Уинзенрид, Джон Гордон, Джон Мэйнард, Роберт Холцман, Том Дорфмайстер,
Описание: Как-то раз в один погожий день небезызвестные Джей и Молчун Боб как всегда подпирали спиной стену бакалейной лавки в Нью-Джерси, и именно там их застало страшное известие, что их персоны, оказывается, лежат в основе комиксов «Пыхарь и Хроник», которые в Голливуде даже собираются экранизировать. Учитывая, что наша парочка не получила ни цента за то, что их именами нагло воспользовались, прилюдно выставив полными идиотами, Джей и Молчун Боб отправляются на студию «Miramax», дабы восстановить справедливость

Качество: BD-Remux [1080p]
Формат: MKV
Видео кодек: H.265
Аудио кодек: AC3, DTS
Видео: 1920x1080, 23,976 кадра/сек, ~29.7 Mbps
Аудио#1: AC3, 6 ch, 448 Kbps 48,0 КГц- Дублированный
Аудио#2: AC3, 6 ch, 448 Kbps 48,0 КГц- Профессиональный многоголосый (WEST)
Аудио#3: DTS, 6 ch, 1510 Kbps 48,0 КГц- Авторский одноголосый (Михаил Яроцкий) - ВНИМАНИЕ!!! НЕНОРМАТИВНАЯ ЛЕКСИКА
Аудио#4: DTS-HD MA, 6 ch, 1858 Kbps 48,0 КГц (DTS, 6 ch, 1510 Kbps)
"Скриншоты"
скриншот   скриншот   скриншот   скриншот  

Код:

Общее
Уникальный идентификатор : 241989518599067857973752145797296723819 (0xB60D7C6B230D3BF4AF6FD93B12E0976B)
Полное имя : D:Джей и Молчаливый БобДжей и Боб_2001_BluRay.Remux.1080p.mkv
Формат : Matroska
Версия формата : Version 2
Размер файла : 24,7 Гбайт
Продолжительность : 1 ч. 45 м.
Режим общего битрейта : Переменный
Общий поток : 33,6 Мбит/сек
Дата кодирования : UTC 2013-03-23 07:52:02
Программа кодирования : mkvmerge v5.6.0 ('Kenya Kane') built on Jun 29 2012 15:01:44
Библиотека кодирования : libebml v1.2.3 + libmatroska v1.3.0

Видео
Идентификатор : 1
Формат : AVC
Формат/Информация : Advanced Video Codec
Профиль формата : High@L4.1
Параметр CABAC формата : Да
Параметр ReFrames формата : 4 кадра
Параметр GOP формата : M=3, N=24
Режим смешивания : Container profile=Unknown@0.0
Идентификатор кодека : V_MPEG4/ISO/AVC
Продолжительность : 1 ч. 45 м.
Вид битрейта : Переменный
Битрейт : 29,7 Мбит/сек
Максимальный битрейт : 35,0 Мбит/сек
Ширина : 1920 пикселей
Высота : 1080 пикселей
Соотношение сторон : 16:9
Режим частоты кадров : Постоянный
Частота кадров : 23,976 кадра/сек
Стандарт вещания : NTSC
Цветовое пространство : YUV
Субдискретизация насыщенности : 4:2:0
Битовая глубина : 8 бит
Тип развёртки : Прогрессивная
Бит/(Пиксели*Кадры) : 0.598
Размер потока : 21,8 Гбайт (88%)
Default : Нет
Forced : Нет
Основные цвета : BT.709
Характеристики трансфера : BT.709
Коэффициенты матрицы : BT.709

Аудио #1
Идентификатор : 2
Формат : AC-3
Формат/Информация : Audio Coding 3
Расширение режима : CM (complete main)
Параметр Endianness формата : Big
Идентификатор кодека : A_AC3
Продолжительность : 1 ч. 45 м.
Вид битрейта : Постоянный
Битрейт : 448 Кбит/сек
Каналы : 6 каналов
Расположение каналов : Front: L C R, Side: L R, LFE
Частота : 48,0 КГц
Битовая глубина : 16 бит
Метод сжатия : С потерями
Размер потока : 337 Мбайт (1%)
Заголовок : Дублированный
Язык : Russian
Default : Да
Forced : Нет

Аудио #2
Идентификатор : 3
Формат : AC-3
Формат/Информация : Audio Coding 3
Расширение режима : CM (complete main)
Параметр Endianness формата : Big
Идентификатор кодека : A_AC3
Продолжительность : 1 ч. 45 м.
Вид битрейта : Постоянный
Битрейт : 448 Кбит/сек
Каналы : 6 каналов
Расположение каналов : Front: L C R, Side: L R, LFE
Частота : 48,0 КГц
Битовая глубина : 16 бит
Метод сжатия : С потерями
Размер потока : 337 Мбайт (1%)
Заголовок : Профессиональный многоголосый West
Язык : Russian
Default : Нет
Forced : Нет

Аудио #3
Идентификатор : 4
Формат : DTS
Формат/Информация : Digital Theater Systems
Идентификатор кодека : A_DTS
Продолжительность : 1 ч. 45 м.
Вид битрейта : Постоянный
Битрейт : 1510 Кбит/сек
Каналы : 6 каналов
Расположение каналов : Front: L C R, Side: L R, LFE
Частота : 48,0 КГц
Битовая глубина : 24 бит
Метод сжатия : С потерями
Размер потока : 1,11 Гбайт (4%)
Заголовок : Михаил Яроцкий
Язык : Russian
Default : Нет
Forced : Нет

Аудио #4
Идентификатор : 5
Формат : DTS
Формат/Информация : Digital Theater Systems
Профиль формата : MA / Core
Идентификатор кодека : A_DTS
Продолжительность : 1 ч. 45 м.
Вид битрейта : Переменный
Битрейт : 806 Кбит/сек / 755 Кбит/сек
Каналы : 6 каналов
Расположение каналов : Front: L C R, Side: L R, LFE
Частота : 48,0 КГц
Битовая глубина : 16 бит
Метод сжатия : Без потерь / Lossy
Язык : English
Default : Нет
Forced : Нет

Текст
Идентификатор : 6
Формат : PGS
Режим смешивания : zlib
Идентификатор кодека : S_HDMV/PGS
Идентификатор кодека/Информация : The same subtitle format used on BDs/HD-DVDs
Язык : Russian
Default : Да
Forced : Нет

Меню
00:00:00.000 : en:00:00:00.000
00:04:43.783 : en:00:04:43.783
00:12:55.942 : en:00:12:55.942
00:16:29.197 : en:00:16:29.197
00:23:55.809 : en:00:23:55.809
00:29:28.016 : en:00:29:28.016
00:33:25.128 : en:00:33:25.128
00:43:24.936 : en:00:43:24.936
00:49:59.872 : en:00:49:59.872
00:58:21.957 : en:00:58:21.957
01:02:23.281 : en:01:02:23.281
01:04:46.091 : en:01:04:46.091
01:08:52.128 : en:01:08:52.128
01:14:56.784 : en:01:14:56.784
01:21:11.200 : en:01:21:11.200
01:30:17.203 : en:01:30:17.203
01:32:46.603 : en:01:32:46.603
01:34:19.612 : en:01:34:19.612



Джей и Молчаливый Боб наносят ответный удар скачать торрент



«Голливуд доигрался!»



Скачать Джей и Молчаливый Боб наносят ответный удар через торрент https://pic1.kartinco.top/images/21/f5i6nyiwnk.jpg Скачать, смотреть онлайн Джей и Молчаливый Боб наносят ответный удар бесплантно в хорошем качестве Описание: Как-то раз в один погожий день небезызвестные Джей и Молчун Боб как всегда подпирали спиной стену бакалейной лавки в Нью-Джерси, ... 10 10 10
Info! Золотая раздача, скачанное не засчитывается.
Торрент: Зарегистрирован [2013-03-29 19:05] · скачан: 25 раз
Статус: √ проверено
Размер: 24.67 GB
Как cкачать? Как скачать Джей и Молчаливый Боб наносят ответный удар через торрент | UTorrent

% Раздел Тема Автор DL S | L
Фильмы [HD 720p, 1080p] (Хороший звук DUB, MVO) [ 5.12 GB ] Джей и Молчаливый Боб наносят ответный удар / Jay and Silent Bob Strike Back | DUB | 720p msltel Скачать
1 | 0
Фильмы [HD 720p, 1080p] (Хороший звук DUB, MVO) [ 9.92 GB ] Джей и Молчаливый Боб наносят ответный удар / Jay and Silent Bob Strike Back | DUB | 1080p msltel Скачать
1 | 0
Фильмы 2001-2005 [ 1.46 GB ] Джей и Молчаливый Боб наносят ответный удар / Jay and Silent Bob Strike Back | | BDRip LiL_StaR Скачать
1 | 0

28-11-2019 20:33  


Отключить вcю реклaмy на сайте, в т.ч. и в плеере онлайн просмотра!

    Дорогой пользователь! Огромная просьба, поблагодарите релизера, оцените раздачу и оставьте свои комментарий, если Вы скачали Джей и Молчаливый Боб наносят ответный удар через торрент бесплатно!!
    Комментировать посты могут только пользователи прошедшие не сложную регистрацию
    Показать сообщения:    


    Джей и Молчаливый Боб наносят ответный удар через торрент
    Скачать бесплатно Джей и Молчаливый Боб наносят ответный удар
    Джей и Молчаливый Боб наносят ответный удар скачать торрент
    Джей и Молчаливый Боб наносят ответный удар смотреть онлайн
    Cкачать фильм Джей и Молчаливый Боб наносят ответный удар бесплатно
    Джей и Молчаливый Боб наносят ответный удар скачать торрент в хорошем качестве
    Джей и Молчаливый Боб наносят ответный удар смотреть онлайн бесплатно в хорошем качестве
    Вы не можете начинать темы
    Вы не можете отвечать на сообщения
    Вы не можете редактировать свои сообщения
    Вы не можете удалять свои сообщения
    Вы не можете голосовать в опросах
    Вы не можете прикреплять файлы к сообщениям
    Вы можете скачивать файлы
    Джей и Молчаливый Боб наносят ответный удар / Jay and Silent Bob Strike Back [2001 г., Комедия, BD-Remux [1080p], Дублированный, MVO, Авторский одноголосый] смотреть онлайн, скачать торрент picoco.icu