2 сезон

iTunes

MVO

1

2 сезон

iTunes

iTunes

1 сезон

RePack

30

Новинка

ВАЖНО

ИГРА 18+

pack

RePack

MK11
pack

Легкие деньги

RePack

jed

RePack

fifa19

RePack

RDR2

RePack

NEED FOR SPEED™ PAYBACK

4 сезон

9 сезон

Бесстыжие 9 сезон

Все сериалы

все сериалы на PB.wtf

RePack

FAR CRY 5

Anonymous, добрый день, мы не успеваем собрать деньги на оплату серверов за декабрь и январь, помогите нам пожалуйста в это трудное время. В качестве благодарности мы отключим Вам всю рекламу на сайте (укажите свой ник в строку Ваше имя)!

×
  
Magnet ссылка

Мужчина с гарантией (Артем Аксененко) [2012 г., мелодрама, комедия, BDRip, лицензия] piratbit.org

Мужчина с гарантией через торрент piratbit.org

Размер: 1.45 GB | Добавлен: 7 лет 9 мес. назад | Торрент скачан:444 раза
Скачать  

13-04-2013 12:07 Мужчина с гарантией Скачать торрент  

Мужчина с гарантией

Страна: Россия
Год выпуска: 2012
Жанр: мелодрама, комедия,
Продолжительность: 81 мин. / 01:21
Тип релиза: Лицензия
Субтитры: Отсутствуют

Режиссер: Артем Аксененко
Продюссер: Георгий Малков, Сарик Андреасян, Гевонд Андреасян
Сценарий: Тихон Корнев


Бюджет: $2 000 000
Премьера в мире: 27 сентября 2012



В ролях: Александр Олешко, Нонна Гришаева, Дмитрий Нагиев, Пётр Фёдоров, Ольга Волкова, Юлия Гришина, Дмитрий Шаракоис, Анна Чурина, Андрей Федорцов, Юрий Никулин мл.,

Описание: В одном большом и любимом горожанами торговом центре работает охранником необычный человек. Он помогает всем вокруг: продавцам общепита и модной одежды, уборщикам и барменам в кафетерии. Он знает всё и всех, и все знают и любят его! Он словно домовой в этом огромном здании с миллионом неоновых вывесок и ярких стеклянных витрин.

Ведь здесь он не только работает, но и живет полноценной жизнью — бесплатно одевается, питается в ресторанах, спит в мебельном отделе и участвует в ночных гонках на полотерах. «Какой странный персонаж!» — подумаете вы. На самом деле, у нашего героя есть хрустальная и загадочная мечта, на осуществление которой он старательно копит деньги на «зарплатной» банковской карте.

Однажды в его жизни появляется стажерка, которую необходимо обучить всему, что умеет он сам. Отношения, начавшиеся как обременительная обязанность, постепенно начинают перерастать дружеские. Ну а дружба между мужчиной и женщиной вещь весьма специфическая, тут и до романтики недалеко! Однако, герой не знает одной важной детали: эта его «коллега» — владелица всего торгового центра.


Качество: BDRip
Видео кодек: XviD
Аудио кодек: AC3
Видео: 2014 Кбит/сек 720 х 304 пикселя 23,976 кадра/сек
Аудио#1: 448 Кбит/сек 6 каналов 48,0 КГц




Общее
Формат : AVI
Формат/Информация : Audio Video Interleave
Размер файла : 1,45 Гбайт
Продолжительность : 1 ч. 24 м.
Общий поток : 2472 Кбит/сек
Название фильма : Мужчина с гарантией (2012) BDRip
Режиссёр : sociolog_melvas
Жанр : мелодрама, комедия
Программа кодирования : VirtualDubMod 1.5.10.2 (build 2540/release)
Примечание : 26.10.2012

Видео
Идентификатор : 0
Формат : MPEG-4 Visual
Профиль формата : Advanced Simple@L5
Параметр BVOP формата : 1
Параметр QPel формата : Нет
Параметр GMC формата : Без точки перехода
Параметр матрицы формата : Выборочная
Идентификатор кодека : XVID
Идентификатор кодека/Подсказка : XviD
Продолжительность : 1 ч. 24 м.
Битрейт : 2014 Кбит/сек
Ширина : 720 пикселей
Высота : 304 пикселя
Соотношение сторон : 2,35:1
Частота кадров : 23,976 кадра/сек
Цветовое пространство : YUV
Субдискретизация насыщенности : 4:2:0
Битовая глубина : 8 бит
Тип развёртки : Прогрессивная
Метод сжатия : С потерями
Бит/(Пиксели*Кадры) : 0.384
Размер потока : 1,18 Гбайт (81%)
Библиотека кодирования : XviD 65

Аудио
Идентификатор : 1
Формат : AC-3
Формат/Информация : Audio Coding 3
Расширение режима : CM (complete main)
Параметр Endianness формата : Big
Идентификатор кодека : 2000
Продолжительность : 1 ч. 24 м.
Вид битрейта : Постоянный
Битрейт : 448 Кбит/сек
Каналы : 6 каналов
Расположение каналов : Front: L C R, Side: L R, LFE
Частота : 48,0 КГц
Битовая глубина : 16 бит
Метод сжатия : С потерями
Размер потока : 270 Мбайт (18%)
Выравнивание : Разделение по промежуткам
Продолжительность промежутка : 42 мс. (1,00 видеокадр)
Время предзагрузки промежутка : 500 мс.

piratbit.org



Скачать Мужчина с гарантией через торрент http://pic.kartinco.top/images/2/11xrdzd7xk.png Скачать фильм Мужчина с гарантией через торрент бесплантно в хорошем качестве Описание: В одном большом и любимом горожанами торговом центре работает охранником необычный человек. Он помогает всем вокруг: продавцам ... 8.3 10 12
Info! Золотая раздача, скачанное не засчитывается.
Торрент: Зарегистрирован [2013-04-13 12:07] · скачан: 444 раз
Статус: √ проверено
Размер: 1.45 GB
Как cкачать? Как скачать Мужчина с гарантией через торрент | UTorrent

% Раздел Тема Автор DL S | L
Наши новые фильмы 2012 [ 1.46 GB ] Мужчина с гарантией [2012 BDRip-AVC ] AlexG77 Скачать
1 | 0
Наши новые фильмы 2012 [ 1.37 GB ] Мужчина с гарантией [2012 DVDRip лицензия] Seedtank Скачать
1 | 0
Наши новые фильмы 2012 [ 1.37 GB ] Мужчина с гарантией [2012 HDRip Оригинал] VadimBird Скачать
1 | 0
Наши фильмы (Blu-ray, BD-Remux, HDDVD) [ 22.74 GB ] Мужчина с гарантией [2012 Blu-ray Оригинал] Pavlin Скачать
1 | 0
Наши новые фильмы 2012 [ 1.46 GB ] Мужчина с гарантией [2012 DVDRip-AVC Оригинал] Seedtank Скачать
1 | 0
Наши фильмы (DVD фильмы) [ 6.93 GB ] Мужчина с гарантией [2012 DVD9] R5 voovaz Скачать
1 | 0

28-11-2019 20:33  

Отключить всю рекламу на сайте

    Дорогой пользователь! Огромная просьба, поблагодарите релизера, оцените раздачу и оставьте свои комментарий, если Вы скачали Мужчина с гарантией через торрент бесплатно! Внесите свою лепту в развитие PiratBit!
    Комментировать посты могут только пользователи прошедшие не сложную регистрацию
    Показать сообщения:    

    Мужчина с гарантией через торрент
    Скачать бесплатно Мужчина с гарантией
    Мужчина с гарантией скачать торрент
    Мужчина с гарантией смотреть онлайн
    Cкачать фильм Мужчина с гарантией бесплатно
    Мужчина с гарантией скачать торрент в хорошем качестве
    Мужчина с гарантией смотреть онлайн бесплатно в хорошем качестве


    Вы не можете начинать темы
    Вы не можете отвечать на сообщения
    Вы не можете редактировать свои сообщения
    Вы не можете удалять свои сообщения
    Вы не можете голосовать в опросах
    Вы не можете прикреплять файлы к сообщениям
    Вы можете скачивать файлы