1 сезон

3 сезон

iTunes

1

iTunes

MVO

iTunes

13

1 сезон

RePack

30

Deluxe

pack

Лицензия

ВАЖНО

ИГРА 18+

pack

RePack

MK11

RePack

jed

RePack

fifa19

RePack

RDR2

RePack

NEED FOR SPEED™ PAYBACK

4 сезон

9 сезон

Бесстыжие 9 сезон

Все сериалы

все сериалы на PB.wtf

RePack

FAR CRY 5

Anonymous, доброй ночи, мы катастрофически не успеваем собрать деньги на оплату серверов, помогите нам пожалуйста 5,10,15р., для нас важна любая помощь . В качестве благодарности мы отключим Вам всю рекламу на сайте (укажите свой ник в строку Ваше имя)!

×
  
Magnet ссылка

Красная сирена / La Sirene rouge (Оливье Мегатон) [2002 г., боевик, триллер, криминал, DVDRip, MVO] piratbit.org

Красная сирена через торрент piratbit.org

Размер: 744 MB | Добавлен: 8 лет 3 мес. назад | Торрент скачан:89 раз
Скачать  

15-04-2013 13:03 Красная сирена Скачать торрент  

Красная сирена / La Sirene rouge
Год выпуска: 2002
Страна: Франция
Жанр: боевик, триллер, криминал,
Продолжительность: 01:53:44
Перевод: Профессиональный (многоголосый, закадровый)
Субтитры: Отсутствуют

Режиссер: Оливье Мегатон
Продюссер: Симон Арналь, Кэрол Скотта, Реми Бура
Сценарий: Ален Берлинер, Роберт Конрат, Оливье Мегатон, ...

Премьера в мире: 27 июля 2002
Рейтинг R - Детям до 17 лет обязательно присутствие родителей



В ролях:Жан-Марк Барр, Азия Ардженто, Фрэнсис Барбер, Эндрю Тирнан, Александра Неграо, Эдуард Монтут, Вернон Добчефф, Йохан Лейзен, Жан-Кристоф Буве, Карло БрандтОписание:12-летняя Алис приходит в полицейский участок, чтобы рассказать о кровавых преступлениях своей матери. Инспектор Анита Старо пытается помочь девочке. Но предъявить обвинение ее матери — Еве Кристенсен, женщине «со связями», будет непросто. Тем временем подручные Евы пытаются расправиться с Алис. Наемный убийца Гюго после случайной встречи с девочкой берет ее под защиту. Алис просит увезти ее из Парижа к отцу в Португалию. И они отправляются в опасное путешествие по Европе с бандой киллеров «на хвосте»…Качество: DVDRip
Формат: AVI
Видео кодек: XviD
Аудио кодек: MP3
Видео: 656x288 (2.78:1), 25 fps, XviD ~777 kbps avg, 0.165 bit/pixel
Аудио#1: 48 kHz, MP3 , 2 ch, ~128.00 kbps avg
скриншот   скриншот   скриншот  




Format : AVI
Format/Info : Audio Video Interleave
File size : 744 MiB
Duration : 1h 53mn
Overall bit rate : 915 Kbps
Movie name : Красная сирена / La Sirene Rouge (2002) DVDRip [All.Films][RG]
Writing application : VirtualDubMod 1.5.10.3

Video
ID : 0
Format : MPEG-4 Visual
Format profile : Advanced Simple@L5
Format settings, BVOP : 2
Format settings, QPel : No
Format settings, GMC : No warppoints
Format settings, Matrix : Custom
Codec ID : XVID
Codec ID/Hint : XviD
Duration : 1h 53mn
Bit rate : 777 Kbps
Width : 656 pixels
Height : 288 pixels
Display aspect ratio : 2.25:1
Frame rate : 25.000 fps
Color space : YUV
Chroma subsampling : 4:2:0
Bit depth : 8 bits
Scan type : Progressive
Compression mode : Lossy
Bits/(Pixel*Frame) : 0.165
Stream size : 632 MiB (85%)
Writing library : XviD 73

Audio
ID : 1
Format : MPEG Audio
Format version : Version 1
Format profile : Layer 3
Codec ID : 55
Codec ID/Hint : MP3
Duration : 1h 53mn
Bit rate mode : Constant
Bit rate : 128 Kbps
Channel(s) : 2 channels
Sampling rate : 48.0 KHz
Compression mode : Lossy
Stream size : 104 MiB (14%)
Alignment : Aligned on interleaves
Interleave, duration : 40 ms (1.00 video frame)
Interleave, preload duration : 504 ms
Writing library : LAME3.99r
Encoding settings : -m s -V 4 -q 0 -lowpass 17 -b 128

Красная сирена скачать торрент


piratbit.org



Скачать Красная сирена через торрент https://pic1.kartinco.top/images/21/sqnadl1rw5.jpg Скачать фильм Красная сирена через торрент бесплантно в хорошем качестве Описание:12-летняя Алис приходит в полицейский участок, чтобы рассказать о кровавых преступлениях своей матери. Инспектор Анита Старо ... 9.7 10 10
Info! Золотая раздача, скачанное не засчитывается.
Торрент: Зарегистрирован [2013-04-15 13:03] · скачан: 89 раз
Статус: √ проверено
Размер: 744 MB
Как cкачать? Как скачать Красная сирена через торрент | UTorrent

28-11-2019 20:33  

Отключить всю рекламу на сайте

    Дорогой пользователь! Огромная просьба, поблагодарите релизера, оцените раздачу и оставьте свои комментарий, если Вы скачали Красная сирена через торрент бесплатно! Внесите свою лепту в развитие PiratBit!
    Комментировать посты могут только пользователи прошедшие не сложную регистрацию
    Показать сообщения:    

    Красная сирена через торрент
    Скачать бесплатно Красная сирена
    Красная сирена скачать торрент
    Красная сирена смотреть онлайн
    Cкачать фильм Красная сирена бесплатно
    Красная сирена скачать торрент в хорошем качестве
    Красная сирена смотреть онлайн бесплатно в хорошем качестве


    Вы не можете начинать темы
    Вы не можете отвечать на сообщения
    Вы не можете редактировать свои сообщения
    Вы не можете удалять свои сообщения
    Вы не можете голосовать в опросах
    Вы не можете прикреплять файлы к сообщениям
    Вы можете скачивать файлы