Ссылка на приватное зеркало нашего сайта всего за 1$. Внимание количество ограничено!!!

2 сезон

iTunes

iTunes

1

iTunes

iTunes

iTunes

WEBRip

iTunes

30
pack

Забери бонус

ВАЖНО

!!Акция!!

Alien_RageХит недели

RePack

RESIDENT EVIL 3: NEMESIS REMAKE

ИГРА 18+

pack

RePack

jed

!!Акция!!

Alien_Rage

RePack

fifa19

RePack

Assassins Creed: Odyssey

RePack

NEED FOR SPEED™ PAYBACK

4 сезон

9 сезон

Бесстыжие 9 сезон

Все сериалы

все сериалы на PB.wtf

RePack

FAR CRY 5
  

Бронсон / Bronson (Николас Виндинг Рефн) [2008 г., драма, биография, криминал, боевик, триллер, BDRip, Профессиональный + Оригинал отдельно] piratbit.org

Бронсон через торрент piratbit.org

Размер: 1.75 GB | Добавлен: 7 лет 5 мес. назад | Торрент скачан:374 раза
Скачать  

17-04-2013 12:06 Бронсон Скачать торрент  

Бронсон / Bronson
The Man. The Myth. The Celebrity.
Год выпуска: 2008
Страна: Великобритания
Жанр: драма, биография, криминал, боевик, триллер,
Продолжительность: 1:32:29
Перевод: Профессиональный + Оригинал отдельно
Тип релиза: Лицензия
Субтитры: отсутствуют

Режиссер: Николас Виндинг Рефн
Продюссер: Дэниэл Хансфорд, Руперт Престон, Сюзанн Ализарт
Сценарий: Брок Норман Брок, Николас Виндинг Рефн

Премьера в мире: 19 января 2009



В ролях: Том Харди, Мэтт Кинг, Келли Адамс, Кэти Баркер, Эдвард Беннет-Кол, Джун Вуд, Нил Брум, Аманда Бертон, Уильям Дарк, Марк Девенпорт.,

Описание: История жизни британского заключённого Чарльза Бронсона, урождённого Майкла Гордона Питерсона из благополучной британской семьи среднего класса. Бронсон провёл «за решёткой» почти 40 лет, в одиночной камере за различные нарушения, и характеризуется как самый опасный британский преступник.

Качество: BDRip
Формат: AVI
Видео кодек: XviD
Аудио кодек: AC3
Видео: 720x384 (1.875:1), 24.000 fps, XVID ~1800 kbps avg, 0.271 bit/pixel
Аудио#1: Русский 48 kHz, AC3, 6 ch, 448.00 kbps Constant ( от НТВ+)
Аудио#2: Английский 48 kHz, AC3, 6 ch, 448.00 kbps Constant (отдельным файлом)









General
Complete name : Bronson.2008.P2.BDRip.avi
Format : AVI
Format/Info : Audio Video Interleave
File size : 1.46 GiB
Duration : 1h 32mn
Overall bit rate : 2 257 Kbps
Writing application : VirtualDubModRus 1.5.10.2 (build 2542/release)
Writing library : VirtualDubMod build 2542/release

Video
ID : 0
Format : MPEG-4 Visual
Format profile : Advanced Simple@L5
Format settings, BVOP : Yes
Format settings, QPel : No
Format settings, GMC : No warppoints
Format settings, Matrix : Custom
Muxing mode : Packed bitstream
Codec ID : XVID
Codec ID/Hint : XviD
Duration : 1h 32mn
Bit rate : 1 800 Kbps
Width : 720 pixels
Height : 384 pixels
Display aspect ratio : 1.875
Frame rate : 24.000 fps
Color space : YUV
Chroma subsampling : 4:2:0
Bit depth : 8 bits
Scan type : Progressive
Bits/(Pixel*Frame) : 0.271
Stream size : 1.16 GiB (80%)
Writing library : XviD 1.2.1 (UTC 2008-12-04)

Audio
ID : 1
Format : AC-3
Format/Info : Audio Coding 3
Mode extension : CM (complete main)
Codec ID : 2000
Duration : 1h 32mn
Bit rate mode : Constant
Bit rate : 448 Kbps
Channel(s) : 6 channels
Channel positions : Front: L C R, Side: L R, LFE
Sampling rate : 48.0 KHz
Bit depth : 16 bits
Stream size : 296 MiB (20%)
Alignment : Split accross interleaves
Interleave, duration : 42 ms (1.00 video frame)
Interleave, preload duration : 500 ms

piratbit.org



Скачать Бронсон через торрент http://pic.kartinco.top/images/2/waz6zfau7d.png Скачать фильм Бронсон через торрент бесплантно в хорошем качестве Описание: История жизни британского заключённого Чарльза Бронсона, урождённого Майкла Гордона Питерсона из благополучной британской семьи ... 9.6 10 25
Info! Золотая раздача, скачанное не засчитывается.
Торрент: Зарегистрирован [2013-04-17 12:06] · скачан: 374 раз
Статус: √ проверено
Размер: 1.75 GB
Как cкачать? Как скачать Бронсон через торрент | qTorrent

% Раздел Тема Автор DL S | L
Фильмы 2006-2008 [ 1.36 GB ] Бронсон / Bronson [2008 биография HDRip] ДЕН163 Скачать
1 | 0
Фильмы (Blu-ray, BD-Remux, HDDVD) [ 22.66 GB ] Бронсон / Bronson [2008 биография BDRemux 1080p] AVO+DVO Ворон Скачать
1 | 0
Фильмы с авторской озвучкой [ 2.18 GB ] Бронсон / Bronson [2008 биография BDRip Авторский одноголосный 2х двухголосный] killermax2013 Скачать
3 | 0
Фильмы [HD 720p, 1080p] (Хороший звук DUB, MVO) [ 4.52 GB ] Бронсон / Bronson [2008 биография BDRip ] m9sо Скачать
1 | 2
Фильмы 2009 [ 696 MB ] Бронсон  / Bronson [2009 биография DVDRip] DEVI Скачать
1 | 0

28-11-2019 20:33  

Отключить всю рекламу на сайте

17-04-2013 12:13 Бронсон Скачать торрент  

Я слышу голоса. И доносятся они из системника. Суть их заключается в "выключи компьютер". А я человек подвластный чужому мнению не способен долго им противстоять. Поэтому на ночь выключаю компьютер, что может быть причиной отсутствия отдачи на этом релизе в ночное время.piratbit.org



17-04-2013 12:22 Бронсон Скачать торрент  

Вы в курсе что том харди БИ!)))piratbit.org



17-04-2013 12:31 Бронсон Скачать торрент  

saidfatal
я не верю тебе!!!!!!!!хнык

По фильму: один из самых запоминающихся для меня. Шикарная игра Тома Харди (главная фишка фильма). Неплохой сюжет. Хорошая режисура. Если знаете английской - то смотреть ТОЛЬКО в оригинале. Если не знаете, субтитры будут отвлекать от ГГ, поэтому их вставлять не стал. Благо, и с переводом слышно английскую речь, что очень хорошо. так что много не потреяете, если будете смотреть в русской озвучке.piratbit.org



17-04-2013 13:11 Бронсон Скачать торрент  

saidfatal
А чел играющий Гендальфа и Магнетто вообще гей , но что то я посмотрел все части люди икс и властелин колец + хоббит
P.S. бисексуалам вообще тяжело живется они хотят секса СО ВСЕМИ ,И С МУЖИКАМИ ,И С ЖЕНЩИНАМИ.piratbit.org



17-04-2013 13:13 Бронсон Скачать торрент  

а я и не грил "не смотрите этот фильм ОН БИ!")) Прост в своё время меня этот факт удивил, решил поделиться.piratbit.org



17-04-2013 15:37 Бронсон Скачать торрент  

раз уж такая пьянка пошла...
как думаете, Ian Gallagher из Shameless http://www.kinopoisk.ru/film/571335/ правда три-два-рас, или это такая хорошая актёрская игра?piratbit.org



17-04-2013 16:47 Бронсон Скачать торрент  

Фильм интересный) Да и пофиг что он Би, я кстати тоже узнал где то год назад)piratbit.org



21-06-2013 07:31 Бронсон Скачать торрент  

Народ на раздачу никто не хочет встать случайно? Встал на 86%piratbit.org



13-08-2013 17:04 Бронсон Скачать торрент  

тема прикольная, спс афторуpiratbit.org



    Дорогой пользователь! Огромная просьба, поблагодарите релизера, оцените раздачу и оставьте свои комментарий, если Вы скачали Бронсон через торрент бесплатно! Внесите свою лепту в развитие PiratBit!
    Комментировать посты могут только пользователи прошедшие не сложную регистрацию
    Показать сообщения:    

    Бронсон через торрент
    Скачать бесплатно Бронсон
    Бронсон скачать торрент
    Бронсон смотреть онлайн
    Cкачать фильм Бронсон бесплатно
    Бронсон скачать торрент в хорошем качестве
    Бронсон смотреть онлайн бесплатно в хорошем качестве


    Вы не можете начинать темы
    Вы не можете отвечать на сообщения
    Вы не можете редактировать свои сообщения
    Вы не можете удалять свои сообщения
    Вы не можете голосовать в опросах
    Вы не можете прикреплять файлы к сообщениям
    Вы можете скачивать файлы