Достать ножи: Стеклянная луковица

MVO

Добыча

Дубляж

Уэнсдэй

1 сезон

Тор

Дубляж

13 клиническая

1 сезон

Жестокая ночь

MVO

Одни из нас

1 сезон

Deluxe

pack

Рекомендуем

30

Пиратка

ВАЖНО

ВАЖНО

Ghostwire

Пиратка

jed

RePack

nioh2

RePack

RDR2

RePack

NEED FOR SPEED™ PAYBACK

RePack

скачать торрент

Кинопоиск HD

Острые козырьки 6 сезон

6 сезон

FAR CRY 6

RePack

скачать торрент

Лицензия

скачать торрент

MVO

1

1 сезон

скачать торрент

1 сезон

скачать торрент

Лицензия

  

Джек Ричер / Jack Reacher (Кристофер МакКуорри) [2012 г., боевик, триллер, криминал, детектив, BD Remux (1080p), Дубляж, лицензия]

Джек Ричер через торрент piratbit.org

Качают: 1 [ 0 KB/s ]
Размер: 32.81 GB | Добавлен: 9 лет 9 мес. назад | Торрент скачан:121 раз
Смотреть онлайн | Скачать | Поддержите нас   

21-04-2013 15:10 Джек Ричер Скачать торрент  

Джек Ричер / Jack Reacher
Год выпуска: 2012
Страна: США
Жанр: боевик, триллер, криминал, детектив,
Продолжительность: 02:10:24
Перевод: Дубляж, Лицензия
Субтитры: Английские

Режиссер: Кристофер МакКуорри
Продюссер: Том Круз, Дэвид Эллисон, Дэна Голдберг
Сценарий: Кристофер МакКуорри, Ли Чайлд

Мировой рейтинг IMDB 7.10 (42 668)


В ролях: Том Круз, Розамунд Пайк, Ричард Дженкинс, Вернер Херцог, Дэвид Ойелоуо, Роберт Дювалл, Джай Кортни, Владимир Сизов, Джозеф Сикора, Майкл Рэймонд-Джеймс, Всеволод Кузнецов, Татьяна Шитова, Игорь Старосельцев, Тимофей Спивак, Илья Хвостиков,

Описание: Снайпер убивает пять случайных прохожих, но все улики указывают на человека, заключенного под стражу. На допросе подозреваемый умоляет об одном — найти Джека Ричера.

Качество: BD Remux (1080p)
Формат: MKV
Видео кодек: H.264
Аудио кодек: DTS, AC3
Видео: 1920 x 1080 (1.778) at 23.976 fps AVC at 32,0 Мбит/сек
Аудио#1: DTS at 2347 Кбит/сек / 1510 Кбит/сек, 6 каналов, 48,0 КГц RUS
Аудио#2: DTS at 1597 Кбит/сек / 1510 Кбит/сек, 8 каналов / 6 каналов, 48,0 КГц ENG
Аудио#3: AC-3 at 640 Кбит/сек, 6 каналов, 48,0 КГц ENG
Аудио#4: AC-3 at 224 Кбит/сек, 2 канала, 48,0 КГц ENG
Аудио#5: AC-3 at 224 Кбит/сек, 2 канала, 48,0 КГц ENG
скриншот   скриншот   скриншот   скриншот   скриншот  

Общее
Уникальный идентификатор : 182543934885004003611991873269350951423 (0x8954AEDB74B19BF4A1FAAA15E56A69FF)
Полное имя : D:ФильмыJack.Reacher.Blu-Ray Remux(1080p)BDMVSTREAMJack Reacher.2012.D.BD.Remux (1080p).mkv
Формат : Matroska
Версия формата : Version 4 / Version 2
Размер файла : 32,8 Гбайт
Продолжительность : 2 ч. 10 м.
Режим общего битрейта : Переменный
Общий поток : 36,0 Мбит/сек
Название фильма : Jack Reacher 2012 Blu-Ray 1080p =Sудья= http://pb.wtf/
Дата кодирования : UTC 2010-02-22 21:41:31
Программа кодирования : mkvmerge v5.9.0 ('On The Loose') built on Dec 9 2012 15:37:01
Библиотека кодирования : libebml v1.3.0 + libmatroska v1.4.0

Видео
Идентификатор : 1
Формат : AVC
Формат/Информация : Advanced Video Codec
Профиль формата : High@L4.1
Параметр CABAC формата : Да
Параметр ReFrames формата : 4 кадра
Режим смешивания : Header stripping
Идентификатор кодека : V_MPEG4/ISO/AVC
Продолжительность : 2 ч. 10 м.
Вид битрейта : Переменный
Битрейт : 30,3 Мбит/сек
Максимальный битрейт : 32,0 Мбит/сек
Ширина : 1920 пикселей
Высота : 1080 пикселей
Соотношение сторон : 16:9
Частота кадров : 23,976 кадра/сек
Цветовое пространство : YUV
Субдискретизация насыщенности : 4:2:0
Битовая глубина : 8 бит
Тип развёртки : Прогрессивная
Бит/(Пиксели*Кадры) : 0.609
Размер потока : 27,6 Гбайт (84%)
Язык : English
Default : Да
Forced : Нет

Аудио #1
Идентификатор : 2
Формат : DTS
Формат/Информация : Digital Theater Systems
Профиль формата : MA / Core
Режим смешивания : Header stripping
Идентификатор кодека : A_DTS
Продолжительность : 2 ч. 10 м.
Вид битрейта : Переменный
Битрейт : 2347 Кбит/сек / 1510 Кбит/сек
Каналы : 6 каналов
Расположение каналов : Front: L C R, Side: L R, LFE
Частота : 48,0 КГц
Битовая глубина : 24 бит
Метод сжатия : Без потерь / Lossy
Язык : Russian
Default : Да
Forced : Да

Аудио #2
Идентификатор : 3
Формат : DTS
Формат/Информация : Digital Theater Systems
Профиль формата : MA / Core
Режим смешивания : Header stripping
Идентификатор кодека : A_DTS
Продолжительность : 2 ч. 10 м.
Вид битрейта : Переменный
Битрейт : 1597 Кбит/сек / 1510 Кбит/сек
Каналы : 8 каналов / 6 каналов
Расположение каналов : Front: L C R, Side: L R, Back: L R, LFE / Front: L C R, Side: L R, LFE
Частота : 48,0 КГц
Битовая глубина : 24 бит
Метод сжатия : Без потерь / Lossy
Язык : English
Default : Нет
Forced : Нет

Аудио #3
Идентификатор : 4
Формат : AC-3
Формат/Информация : Audio Coding 3
Расширение режима : CM (complete main)
Режим смешивания : Header stripping
Идентификатор кодека : A_AC3
Продолжительность : 2 ч. 10 м.
Вид битрейта : Постоянный
Битрейт : 640 Кбит/сек
Каналы : 6 каналов
Расположение каналов : Front: L C R, Side: L R, LFE
Частота : 48,0 КГц
Битовая глубина : 16 бит
Метод сжатия : С потерями
Размер потока : 597 Мбайт (2%)
Заголовок : AC3 640 Кбит/сек
Язык : English
Default : Нет
Forced : Нет

Аудио #4
Идентификатор : 5
Формат : AC-3
Формат/Информация : Audio Coding 3
Расширение режима : CM (complete main)
Режим смешивания : Header stripping
Идентификатор кодека : A_AC3
Продолжительность : 2 ч. 10 м.
Вид битрейта : Постоянный
Битрейт : 224 Кбит/сек
Каналы : 2 канала
Расположение каналов : Front: L R
Частота : 48,0 КГц
Битовая глубина : 16 бит
Метод сжатия : С потерями
Размер потока : 209 Мбайт (1%)
Заголовок : AC3 224 Кбит/сек
Язык : English
Default : Нет
Forced : Нет

Аудио #5
Идентификатор : 6
Формат : AC-3
Формат/Информация : Audio Coding 3
Расширение режима : CM (complete main)
Режим смешивания : Header stripping
Идентификатор кодека : A_AC3
Продолжительность : 2 ч. 10 м.
Вид битрейта : Постоянный
Битрейт : 224 Кбит/сек
Каналы : 2 канала
Расположение каналов : Front: L R
Частота : 48,0 КГц
Битовая глубина : 16 бит
Метод сжатия : С потерями
Размер потока : 209 Мбайт (1%)
Заголовок : AC3 224 Кбит/сек
Язык : English
Default : Нет
Forced : Нет

Текст #1
Идентификатор : 7
Формат : PGS
Режим смешивания : zlib
Идентификатор кодека : S_HDMV/PGS
Идентификатор кодека/Информация : The same subtitle format used on BDs/HD-DVDs
Язык : English
Default : Да
Forced : Нет

Текст #2
Идентификатор : 8
Формат : PGS
Режим смешивания : zlib
Идентификатор кодека : S_HDMV/PGS
Идентификатор кодека/Информация : The same subtitle format used on BDs/HD-DVDs
Язык : English
Default : Нет
Forced : Нет

Текст #3
Идентификатор : 9
Формат : PGS
Режим смешивания : zlib
Идентификатор кодека : S_HDMV/PGS
Идентификатор кодека/Информация : The same subtitle format used on BDs/HD-DVDs
Язык : English
Default : Нет
Forced : Нет

Текст #4
Идентификатор : 10
Формат : PGS
Режим смешивания : zlib
Идентификатор кодека : S_HDMV/PGS
Идентификатор кодека/Информация : The same subtitle format used on BDs/HD-DVDs
Язык : English
Default : Нет
Forced : Нет


Джек Ричер скачать торрент





Скачать Джек Ричер через торрент https://pic1.kartinco.top/images/21/i9aeyj9r41.png Скачать, смотреть онлайн Джек Ричер бесплантно в хорошем качестве Описание: Снайпер убивает пять случайных прохожих, но все улики указывают на человека, заключенного под стражу. На допросе подозреваемый ... 9.7 10 11
Info! Золотая раздача, скачанное не засчитывается.
Торрент: Зарегистрирован [2013-04-21 15:10] · скачан: 121 раз
Статус: √ проверено
Размер: 32.81 GB
Как cкачать? Как скачать Джек Ричер через торрент | UTorrent

% Раздел Тема Автор DL S | L
R.G. Resident & PiratVoice - Фильмы, Видео [ 4.36 GB ] Джек Ричер: Дилогия / Jack Reacher: Dilogy | Лицензия | BDRip, Дубляж ruslanishe Скачать
1 | 0
Фильмы [HD 720p, 1080p] (Хороший звук DUB, MVO) [ 6.17 GB ] Джек Ричер / Jack Reacher | Дубляж | 720p, Дубляж, лицензия Ke$h@ Скачать
1 | 0

28-11-2019 20:33  


Отключить вcю реклaмy на сайте, в т.ч. и в плеере онлайн просмотра!

21-04-2013 15:57 Джек Ричер Скачать торрент  

Отличный фильм! Смотрел в кино, скачаю, еще разок гляну.



01-05-2013 21:38 Джек Ричер Скачать торрент  

Большое спс)



    Дорогой пользователь! Огромная просьба, поблагодарите релизера, оцените раздачу и оставьте свои комментарий, если Вы скачали Джек Ричер через торрент бесплатно!!
    Комментировать посты могут только пользователи прошедшие не сложную регистрацию
    Показать сообщения:    


    Джек Ричер через торрент
    Скачать бесплатно Джек Ричер
    Джек Ричер скачать торрент
    Джек Ричер смотреть онлайн
    Cкачать фильм Джек Ричер бесплатно
    Джек Ричер скачать торрент в хорошем качестве
    Джек Ричер смотреть онлайн бесплатно в хорошем качестве
    Вы не можете начинать темы
    Вы не можете отвечать на сообщения
    Вы не можете редактировать свои сообщения
    Вы не можете удалять свои сообщения
    Вы не можете голосовать в опросах
    Вы не можете прикреплять файлы к сообщениям
    Вы можете скачивать файлы
    Джек Ричер / Jack Reacher [2012 г., боевик, триллер, криминал, детектив, BD Remux , Дубляж, лицензия] смотреть онлайн, скачать торрент picoco.icu