1 сезон

iTunes

iTunes

1

Line

MVO

iTunes

13

1 сезон

RePack

30

Deluxe

pack

Лицензия

ВАЖНО

ИГРА 18+

pack

RePack

MK11

RePack

jed

RePack

fifa19

RePack

RDR2

RePack

NEED FOR SPEED™ PAYBACK

4 сезон

9 сезон

Бесстыжие 9 сезон

Все сериалы

все сериалы на PB.wtf

RePack

FAR CRY 5

Anonymous, добрый день, мы катастрофически не успеваем собрать деньги на оплату серверов, помогите нам пожалуйста 5,10,15р., для нас важна любая помощь . В качестве благодарности мы отключим Вам всю рекламу на сайте (укажите свой ник в строку Ваше имя)!

×
  
Magnet ссылка

Восставшие из мертвых / Undead (Майкл Спириг, Питер Спириг) [2003 г., ужасы, фантастика, боевик, комедия, BDRip, MVO] piratbit.org

Восставшие из мертвых через торрент piratbit.org

Размер: 2.22 GB | Добавлен: 8 лет 3 мес. назад | Торрент скачан:99 раз
Скачать  

27-04-2013 08:16 Восставшие из мертвых Скачать торрент  

Восставшие из мертвых / Undead
Год выпуска: 2003
Страна: Австралия
Жанр: ужасы, фантастика, боевик, комедия,
Продолжительность: 97 мин. / 01:37
Перевод: Профессиональный многоголосный, закадровый

Режиссер: Майкл Спириг Питер Спириг
Продюссер: Майкл Спириг, Питер Спириг
Сценарий: Майкл Спириг, Питер Спириг

Бюджет: AUD 1 000 000
Премьера в мире: 27 февраля 2003



В ролях: Фелисити Мэйсон, Манго МакКэй, Роб Дженкинс, Лиза Каннингэм, Дирк Хантер, Эмма Рэндолл, Стив Григ, Ноэль Шеридан, Гейнор Уэнсли, Элинор Стиллман, ,

Описание: Провинциальный городок Беркли славен зелеными лугами, хорошей рыбалкой, чистым воздухом и приветливыми жителями. Но всему этому приходит конец, когда на Беркли обрушивается дождь из метеоритов, зараженных внеземной инфекцией.

Один за другим жители городка превращаются в «живых мертвецов», жаждущих человеческой плоти. Те немногие, кто избежал этой участи, прячутся на отдаленной ферме. Но «живые мертвецы» настигают их и здесь. Даже если кому-то и удастся выбраться с фермы, их ждут новые, еще более жуткие испытания…

Качество: BDRip
Формат: MKV
Видео кодек: AVC
Аудио кодек: AC3
Видео: 2810 Кбит/сек 1280 х720 пикселей 25,000 кадров/сек
Аудио#1: 384 Кбит/сек 6 каналов 48,0 КГц
Релиз от: R.G.Фильмы




Общее
Уникальный идентификатор :
Полное имя : D:videoPiratBit(Films)Undead..mkv
Формат : Matroska
Версия формата : Version 2
Размер файла : 2,22 Гбайт
Продолжительность : 1 ч. 39 м.
Режим общего битрейта : Переменный
Общий поток : 3183 Кбит/сек
Название фильма : Rip by Romeo [NOLIMITS-TEAM.RU]
Дата кодирования : UTC 2011-01-26 12:13:00
Программа кодирования : mkvmerge v3.0.0 ('Hang up your Hang-Ups') built on Dec 12 2009 15:20:35
Библиотека кодирования : libebml v0.7.9 + libmatroska v0.8.1

Видео
Идентификатор : 1
Формат : AVC
Формат/Информация : Advanced Video Codec
Профиль формата : High@L4.1
Параметр CABAC формата : Да
Параметр ReFrames формата : 3 кадра
Идентификатор кодека : V_MPEG4/ISO/AVC
Продолжительность : 1 ч. 39 м.
Вид битрейта : Переменный
Битрейт : 2810 Кбит/сек
Максимальный битрейт : 17,5 Мбит/сек
Ширина : 1280 пикселей
Высота : 720 пикселей
Соотношение сторон : 16:9
Частота кадров : 25,000 кадров/сек
Цветовое пространство : YUV
Субдискретизация насыщенности : 4:2:0
Битовая глубина : 8 бит
Тип развёртки : Прогрессивная
Бит/(Пиксели*Кадры) : 0.122
Размер потока : 1,91 Гбайт (86%)
Заголовок : Восставшие из мертвых.[nolimits-team.ru]
Библиотека кодирования : x264 core 112 r1867 22bfd31
Настройки программы :
Язык : English
Default : Да
Forced : Нет

Аудио
Идентификатор : 2
Формат : AC-3
Формат/Информация : Audio Coding 3
Расширение режима : CM (complete main)
Идентификатор кодека : A_AC3
Продолжительность : 1 ч. 39 м.
Вид битрейта : Постоянный
Битрейт : 384 Кбит/сек
Каналы : 6 каналов
Расположение каналов : Front: L C R, Side: L R, LFE
Частота : 48,0 КГц
Битовая глубина : 16 бит
Метод сжатия : С потерями
Размер потока : 274 Мбайт (12%)
Заголовок : Профессиональный (многоголосый закадровый)
Язык : Russian
Default : Да
Forced : Нет

piratbit.org



Скачать Восставшие из мертвых через торрент http://i28.fastpic.ru/big/2012/0121/07/8b6e489e0716b4e771925d83d91fb007.png Скачать фильм Восставшие из мертвых через торрент бесплантно в хорошем качестве Описание: Провинциальный городок Беркли славен зелеными лугами, хорошей рыбалкой, чистым воздухом и приветливыми жителями. Но всему этому ... 7.3 10 12
Info! Золотая раздача, скачанное не засчитывается.
Торрент: Зарегистрирован [2013-04-27 08:16] · скачан: 99 раз
Статус: √ проверено
Размер: 2.22 GB
Как cкачать? Как скачать Восставшие из мертвых через торрент | UTorrent

% Раздел Тема Автор DL S | L
T Фильмы (мультфильмы) cо спонсором показа (Новинки AVI/MKV) [ 3.46 GB ] Отряд мертвецов: Храм восставших из мертвых / Dead Squad: Temple of the Undead [2018 WEB-DL 720p] MVO ["Синема УС"] bober100 Скачать
1 | 0
T Фильмы (мультфильмы) cо спонсором показа (Новинки AVI/MKV) [ 1.37 GB ] Отряд мертвецов: Храм восставших из мертвых / Dead Squad: Temple of the Undead [2018 WEB-DLRip] MVO ["Синема УС"] bober100 Скачать
1 | 0
Фильмы [HD 720p, 1080p] (Хороший звук DUB, MVO) [ 7.75 GB ] Восставшие из мертвых / Undead [2003 BDRip 1080p от еnvy / NNNB] MVO еnvy Скачать
1 | 0


Последний раз редактировалось: byblackmexx (2013-04-27 09:43), всего редактировалось 1 раз

28-11-2019 20:33  

Отключить всю рекламу на сайте

27-04-2013 08:53 Восставшие из мертвых Скачать торрент  

byblackmexx
http://i28.fastpic.ru/big/2012/0121/07/8b6e489e0716b4e771925d83d91fb007.png
piratbit.org



27-04-2013 10:47 Восставшие из мертвых Скачать торрент  

В ролях: Майкл Спириг Питер Спириг. piratbit.org



    Дорогой пользователь! Огромная просьба, поблагодарите релизера, оцените раздачу и оставьте свои комментарий, если Вы скачали Восставшие из мертвых через торрент бесплатно! Внесите свою лепту в развитие PiratBit!
    Комментировать посты могут только пользователи прошедшие не сложную регистрацию
    Показать сообщения:    

    Восставшие из мертвых через торрент
    Скачать бесплатно Восставшие из мертвых
    Восставшие из мертвых скачать торрент
    Восставшие из мертвых смотреть онлайн
    Cкачать фильм Восставшие из мертвых бесплатно
    Восставшие из мертвых скачать торрент в хорошем качестве
    Восставшие из мертвых смотреть онлайн бесплатно в хорошем качестве


    Вы не можете начинать темы
    Вы не можете отвечать на сообщения
    Вы не можете редактировать свои сообщения
    Вы не можете удалять свои сообщения
    Вы не можете голосовать в опросах
    Вы не можете прикреплять файлы к сообщениям
    Вы можете скачивать файлы