1 сезон

1 сезон

iTunes

1

iTunes

Кинопоиск HD

iTunes

13

1 сезон

RePack

30

Deluxe

ВАЖНО

ИГРА 18+

pack

RePack

MK11
pack

Легкие деньги

RePack

jed

RePack

fifa19

RePack

RDR2

RePack

NEED FOR SPEED™ PAYBACK

4 сезон

9 сезон

Бесстыжие 9 сезон

Все сериалы

все сериалы на PB.wtf

RePack

FAR CRY 5
  
Magnet ссылка

Мой мальчик / About a Boy (Крис Вайц / Chris Weitz, Пол Вайц / Paul Weitz) [2002, США, драма, мелодрама, комедия, HDRip] MVO (R5) piratbit.org

Мой мальчик через торрент piratbit.org

Размер: 1.46 GB | Добавлен: 8 лет назад | Торрент скачан:85 раз
Скачать  

30-04-2013 04:09 Мой мальчик Скачать торрент  

Мой мальчик / About a Boy
Год выпуска: 2002
Выпущено: США
Жанр: драма, мелодрама, комедия
Продолжительность: 01:41:20
Перевод: Профессиональный (многоголосый, закадровый, R5)
Cубтитры: нет

Режиссер: Крис Вайц / Chris Weitz, Пол Вайц / Paul Weitz

В ролях: Хью Грант, Николас Холт, Тони Коллетт, Рейчел Вайс, Шэрон Смолл, Мэдисон Кук, Джордан Кук, Николас Хатчинсон, Райан Спичли, Джозеф Спичли

Описание: Возраст Уила Фримана уже приближается к сорока годам, а он довольно успешно смог избежать в своей жизни каких бы то ни было обязательств перед кем бы то ни было. Этот состоятельный англичанин никогда не был женат, у него нет детей, у него даже никогда не было постоянной работы.
Отец Уилла был автором популярной рождественской песни, и тем самым избавил своего сына от проблем с деньгами. Уилл живет на проценты, получаемые от использования песни его отца. Чтобы наконец-то повзрослеть и найти себе женщину, Уилл начинает ходить на специально организованные встречи родителей-одиночек, выдавая себя за отца, у которого якобы есть сын. На одной из встреч Уилл встречает двенадцатилетнего Маркуса, сына одной из матерей-одиночек.
Мальчик и Уилл привязываются друг к другу и становятся лучшими друзьями. Маркус находит в Уилле понимающего взрослого, который помогает ему справляться с проблемами, а Уилл начинает постепенно заботиться о мальчике, чувствовать перед ним свою ответственность и взрослеть…

Качество: HDRip
Формат: AVI
Видео кодек: XviD
Аудио кодек: AC3
Видео: 720x304 (2.37:1), 23.976 fps, XviD build 50 ~1666 kbps avg, 0.32 bit/pixel
Аудио: 48 kHz, AC3 Dolby Digital, 3/2 (L,C,R,l,r) + LFE ch, ~384 kbps
Раздача от:
D:Moi.Malchik.2002.1.45 HDRip [YTN] by dexter lex.avi
General
Complete name : D:Moi.Malchik.2002.1.45 HDRip [YTN] by dexter lex.avi
Format : AVI
Format/Info : Audio Video Interleave
File size : 1.46 GiB
Duration : 1h 41mn
Overall bit rate : 2 059 Kbps
Writing application : VirtualDubMod 1.5.10.3 | www.virtualdub-fr.org || (build 2550/release)
Writing library : VirtualDubMod build 2550/release
Video #0
ID : 0
Format : MPEG-4 Visual
Format profile : Advanced Simple@L5
Format settings, BVOP : 1
Format settings, QPel : No
Format settings, GMC : No warppoints
Format settings, Matrix : Custom
Codec ID : XVID
Codec ID/Hint : XviD
Duration : 1h 41mn
Bit rate : 1 666 Kbps
Width : 720 pixels
Height : 304 pixels
Display aspect ratio : 2.37:1
Frame rate : 23.976 fps
Color space : YUV
Chroma subsampling : 4:2:0
Bit depth : 8 bits
Scan type : Progressive
Compression mode : Lossy
Bits/(Pixel*Frame) : 0.318
Stream size : 1.18 GiB (81%)
Writing library : XviD 1.2.1 (UTC 2008-12-04)
Audio #1
ID : 1
Format : AC-3
Format/Info : Audio Coding 3
Mode extension : CM (complete main)
Format settings, Endianness : Big
Codec ID : 2000
Duration : 1h 41mn
Bit rate mode : Constant
Bit rate : 384 Kbps
Channel(s) : 6 channels
Channel positions : Front: L C R, Side: L R, LFE
Sampling rate : 48.0 KHz
Bit depth : 16 bits
Compression mode : Lossy
Stream size : 278 MiB (19%)
Alignment : Split accross interleaves
Interleave, duration : 42 ms (1.00 video frame)
Interleave, preload duration : 500 ms
http://multi-up.com/860561
piratbit.org



Скачать Мой мальчик через торрент http://i47.fastpic.ru/big/2013/0430/22/1132d743c01cf24394a233001d0e5522.jpg Скачать фильм Мой мальчик через торрент бесплантно в хорошем качестве Описание: Возраст Уила Фримана уже приближается к сорока годам, а он довольно успешно смог избежать в своей жизни каких бы то ни было ... 5.5 10 4
Info! Золотая раздача, скачанное не засчитывается.
Торрент: Зарегистрирован [2013-04-30 04:09] · скачан: 85 раз
Статус: √ проверено
Размер: 1.46 GB
Как cкачать? Как скачать Мой мальчик через торрент | UTorrent

% Раздел Тема Автор DL S | L
Фильмы 2001-2005 [ 749 MB ] Мой мальчик / About a Boy [2002 HDRip] MVO dexter lex Скачать
1 | 0

28-11-2019 20:33  

Отключить всю рекламу на сайте

    Дорогой пользователь! Огромная просьба, поблагодарите релизера, оцените раздачу и оставьте свои комментарий, если Вы скачали Мой мальчик через торрент бесплатно! Внесите свою лепту в развитие PiratBit!
    Комментировать посты могут только пользователи прошедшие не сложную регистрацию
    Показать сообщения:    

    Мой мальчик через торрент
    Скачать бесплатно Мой мальчик
    Мой мальчик скачать торрент
    Мой мальчик смотреть онлайн
    Cкачать фильм Мой мальчик бесплатно
    Мой мальчик скачать торрент в хорошем качестве
    Мой мальчик смотреть онлайн бесплатно в хорошем качестве


    Вы не можете начинать темы
    Вы не можете отвечать на сообщения
    Вы не можете редактировать свои сообщения
    Вы не можете удалять свои сообщения
    Вы не можете голосовать в опросах
    Вы не можете прикреплять файлы к сообщениям
    Вы можете скачивать файлы