1 сезон

iTunes

iTunes

1

Line

MVO

iTunes

13

1 сезон

RePack

30

Deluxe

pack

Лицензия

ВАЖНО

ИГРА 18+

pack

RePack

MK11

RePack

jed

RePack

fifa19

RePack

RDR2

RePack

NEED FOR SPEED™ PAYBACK

4 сезон

9 сезон

Бесстыжие 9 сезон

Все сериалы

все сериалы на PB.wtf

RePack

FAR CRY 5

Anonymous, добрый день, мы катастрофически не успеваем собрать деньги на оплату серверов, помогите нам пожалуйста 5,10,15р., для нас важна любая помощь . В качестве благодарности мы отключим Вам всю рекламу на сайте (укажите свой ник в строку Ваше имя)!

×
  
Magnet ссылка

Царство небесное / Kingdom of Heaven (Ридли Скотт) [2005 г., Боевик, Военный, Драма, Зарубежный фильм, Исторический, Мелодрама, Приключения, BDRip, MVO, лицензия] piratbit.org

Царство небесное через торрент piratbit.org

Размер: 2.73 GB | Добавлен: 8 лет 3 мес. назад | Торрент скачан:95 раз
Скачать  

03-05-2013 07:05 Царство небесное Скачать торрент  

Царство небесное / Kingdom of Heaven
Год выпуска: 2005
Страна: США,Испания
Жанр: Боевик, Военный, Драма, Зарубежный фильм, Исторический, Мелодрама, Приключения,
Продолжительность: 03:09:00
Перевод: Дубляж, Лицензия
Субтитры: Нет

Режиссер: Ридли Скотт
Продюссер: Ридли Скотт, Карим Абубэйд, Марк Албела
Сценарий: Уильям Монахэн

Премьера в мире: Дата выхода в России (или в Мире): 05.05.2005

В ролях: Орландо Блум, Эдвард Нортон, Эва Грин, Лиам Нисон, Джереми Айронс, Николай Костер-Валдау, Эрик Эбуани, Халед Эль Набауи, Джон Финч, Майкл Фицджералд, Брендан Глисон, Кевин МакКидд, Майкл Шин, Александр Сиддиг, Ульрих Томсен, Юко Ахола, Йен Глен, Дэвид Тьюлис, Мартон Чокаш,

Описание: По воле случая юноша Бэлиан за непродолжительный отрезок времени прошёл путь от простого оружейника до рыцаря-крестоносца.
Его храбрость не может вызывать сомнений, его подвиги никогда не остаются незамеченными. Сама леди Сибила благоволит к нему, а её муж сходит с ума от ревности и готов развязать войну, чтобы погубить рыцаря и его господ.

Качество: BDRip
Формат: MKV
Видео кодек: MPEG4
Аудио кодек: AC3
Видео: MPEG-4,1280x544, битрейт1817 Кбит/сек,23,976 кадра/сек,1817 Кбит/сек
Аудио#1: русский,AC3,256 Кбит/сек,6 каналов,16 бит,48,0 КГц
Релиз от: 666gtr666






Общее
Уникальный идентификатор : 214047613192405751554140851785071764870 (0xA108121E7427B797B22351F311F6A586)
Полное имя : D:Царство небесное [Режиссёрская версия].mkv
Формат : Matroska
Версия формата : Version 2
Размер файла : 2,73 Гбайт
Продолжительность : 3 ч. 9 м.
Режим общего битрейта : Переменный
Общий поток : 2059 Кбит/сек
Название фильма : Царство небесное от [Mo0NsTR] FlintFilms.Ru
Дата кодирования : UTC 2010-08-03 13:11:50
Программа кодирования : mkvmerge v4.1.0 ('Boiling Point') built on Jul 1 2010 14:37:28
Библиотека кодирования : libebml v1.0.0 + libmatroska v1.0.0

Видео
Идентификатор : 1
Формат : AVC
Формат/Информация : Advanced Video Codec
Профиль формата : High@L4.1
Параметр CABAC формата : Да
Параметр ReFrames формата : 3 кадра
Идентификатор кодека : V_MPEG4/ISO/AVC
Продолжительность : 3 ч. 9 м.
Вид битрейта : Переменный
Битрейт : 1817 Кбит/сек
Максимальный битрейт : 17,5 Мбит/сек
Ширина : 1280 пикселей
Высота : 544 пикселя
Соотношение сторон : 2,35:1
Соотношение сторон в оригинале : 2,35:1
Режим частоты кадров : Постоянный
Частота кадров : 23,976 кадра/сек
Цветовое пространство : YUV
Субдискретизация насыщенности : 4:2:0
Битовая глубина : 8 бит
Тип развёртки : Прогрессивная
Бит/(Пиксели*Кадры) : 0.109
Размер потока : 2,33 Гбайт (86%)
Библиотека кодирования : x264 core 104 r1688 0b36c6d
Настройки программы : cabac=1 / ref=4 / deblock=1:0:0 / analyse=0x3:0x113 / me=umh / subme=8 / psy=1 / psy_rd=1.00:0.00 / mixed_ref=1 / me_range=16 / chroma_me=1 / trellis=1 / 8x8dct=1 / cqm=0 / deadzone=21,11 / fast_pskip=1 / chroma_qp_offset=-2 / threads=6 / sliced_threads=0 / slices=4 / nr=0 / decimate=1 / interlaced=0 / constrained_intra=0 / bframes=3 / b_pyramid=1 / b_adapt=1 / b_bias=0 / direct=3 / weightb=1 / open_gop=0 / weightp=0 / keyint=24 / keyint_min=1 / scenecut=40 / intra_refresh=0 / rc_lookahead=24 / rc=abr / mbtree=1 / bitrate=1817 / ratetol=1.0 / qcomp=0.60 / qpmin=0 / qpmax=51 / qpstep=4 / vbv_maxrate=17500 / vbv_bufsize=14500 / ip_ratio=1.10 / aq=1:1.00 / nal_hrd=vbr
Язык : English
Default : Да
Forced : Нет

Аудио
Идентификатор : 2
Формат : AC-3
Формат/Информация : Audio Coding 3
Расширение режима : CM (complete main)
Параметр Endianness формата : Big
Режим смешивания : Header stripping
Идентификатор кодека : A_AC3
Продолжительность : 3 ч. 9 м.
Вид битрейта : Постоянный
Битрейт : 256 Кбит/сек
Каналы : 6 каналов
Расположение каналов : Front: L C R, Side: L R, LFE
Частота : 48,0 КГц
Битовая глубина : 16 бит
Метод сжатия : С потерями
Размер потока : 347 Мбайт (12%)
Язык : Russian
Default : Да
Forced : Нет

piratbit.org



Скачать Царство небесное через торрент https://pic1.kartinco.top/images/21/jqumj2zgny.jpg Скачать фильм Царство небесное через торрент бесплантно в хорошем качестве Описание: По воле случая юноша Бэлиан за непродолжительный отрезок времени прошёл путь от простого оружейника до рыцаря-крестоносца. Его ... 9.1 10 16
Info! Золотая раздача, скачанное не засчитывается.
Торрент: Зарегистрирован [2013-05-03 07:05] · скачан: 95 раз
Статус: √ проверено
Размер: 2.73 GB
Как cкачать? Как скачать Царство небесное через торрент | UTorrent

% Раздел Тема Автор DL S | L
Фильмы [HD 720p, 1080p] (Хороший звук DUB, MVO) [ 15.49 GB ] Царство небесное / Kingdom Of Heaven [2005 военный история BDRip-HEVC 1080p ] [Режиссерская версия] 3xAVO+MVO+DUB bober100 Скачать
1 | 0
Фильмы (BDRip, HDrip-AVC) (48-60 fps) [ 3.95 GB ] Царство небесное / Kingdom of Heaven [2005 BDRip-AVC 60fps Director's cut Dub + MVO] от R.G. HD-Films Tiberiumsun69 Скачать
9 | 0
Фильмы [HD 720p, 1080p] (Хороший звук DUB, MVO) [ 18.55 GB ] Царство небесное / Kingdom of Heaven [Director's Cut] [2005 военный история BDRip 720p] MVO + 3xAVO + Dub + Original Eng -Lexx- Скачать
1 | 0
Фильмы [HD 720p, 1080p] (Хороший звук DUB, MVO) [ 13.99 GB ] Царство небесное / Kingdom of Heaven [2005 история BDRip 1080p] smaster Скачать
1 | 0
Фильмы 2001-2005 [ 2.19 GB ] Царство небесное / Kingdom of Heaven [2005 Историческая HDRip] [Directors Cut / Режиссерская версия] DUB + L_E_X Скачать
2 | 0
Фильмы 2001-2005 [ 6.67 GB ] Царство небесное / Kingdom of Heaven [2005 военный история BDRip-AVC] Dub MVO AVO Режиссёрская версия mihis Скачать
2 | 0
Фильмы 2001-2005 [ 2.19 GB ] Царство небесное / Kingdom of Heaven [2005 Военный Зарубежный фильм Исторический Мело HDRip лицензия] 666gtr666 Скачать
1 | 0


Последний раз редактировалось: 666gtr666 (2013-05-03 07:25), всего редактировалось 2 раз(а)

28-11-2019 20:33  

Отключить всю рекламу на сайте

03-05-2013 07:38 Царство небесное Скачать торрент  

Профессиональный многоголосый, Лицензия].....вроде же дубляж?piratbit.org



03-05-2013 13:50 Царство небесное Скачать торрент  

Userman4ik писал(а):

Профессиональный многоголосый, Лицензия].....вроде же дубляж?

Это да моя ошибка, забыл исправить(piratbit.org



    Дорогой пользователь! Огромная просьба, поблагодарите релизера, оцените раздачу и оставьте свои комментарий, если Вы скачали Царство небесное через торрент бесплатно! Внесите свою лепту в развитие PiratBit!
    Комментировать посты могут только пользователи прошедшие не сложную регистрацию
    Показать сообщения:    

    Царство небесное через торрент
    Скачать бесплатно Царство небесное
    Царство небесное скачать торрент
    Царство небесное смотреть онлайн
    Cкачать фильм Царство небесное бесплатно
    Царство небесное скачать торрент в хорошем качестве
    Царство небесное смотреть онлайн бесплатно в хорошем качестве


    Вы не можете начинать темы
    Вы не можете отвечать на сообщения
    Вы не можете редактировать свои сообщения
    Вы не можете удалять свои сообщения
    Вы не можете голосовать в опросах
    Вы не можете прикреплять файлы к сообщениям
    Вы можете скачивать файлы