1 сезон

iTunes

iTunes

1

Line

MVO

iTunes

13

1 сезон

RePack

30

Deluxe

pack

Лицензия

ВАЖНО

ИГРА 18+

pack

RePack

MK11

RePack

jed

RePack

fifa19

RePack

RDR2

RePack

NEED FOR SPEED™ PAYBACK

4 сезон

9 сезон

Бесстыжие 9 сезон

Все сериалы

все сериалы на PB.wtf

RePack

FAR CRY 5

Anonymous, доброй ночи, мы катастрофически не успеваем собрать деньги на оплату серверов, помогите нам пожалуйста 5,10,15р., для нас важна любая помощь . В качестве благодарности мы отключим Вам всю рекламу на сайте (укажите свой ник в строку Ваше имя)!

×
  
Magnet ссылка

Блэйд 2 / Blade 2 (Гильермо Дель Торо / Guillermo del Toro) [2002, США, ужасы, боевик, триллер, HDRip] Dub piratbit.org

Блэйд 2 через торрент piratbit.org

Размер: 745 MB | Добавлен: 8 лет 2 мес. назад | Торрент скачан:16 раз
Скачать  

04-05-2013 10:44 Блэйд 2 Скачать торрент  

Блэйд 2 / Blade 2
Год выпуска: 2002
Страна: США
Жанр: ужасы, боевик, триллер
Продолжительность: 01:56:49
Перевод: Профессиональный (полное дублирование)
Субтитры: нет

Режиссер: Гильермо Дель Торо / Guillermo del Toro

В ролях: Уэсли Снайпс, Крис Кристофферсон, Рон Перлман, Леонор Варела, Норман Ридус, Томас Кречманн, Люк Госс, Мэтт Шульц

Описание: Трамвайчик едущий по старой улице, вполне может заставить думать, что перед нами Москва. Однако это не Москва, а Прага. Сюда Блэйд прибыл в поисках своего учителя Уистлера, которого вроде как загрызли до смерти в первой серии. Но не все так просто, после спасения Уистлера, на Блэйда вышла группа вампиров, что бы нанять его для уничтожения новой породы кровососов, которая питается исключительно "обычными" вампирами, превращая их в кошмарных человекоподобных чудовищ не боящихся ни пуль из серебра, ни колов, ни святой воды. В помощь Блэйду выделен отряд специально тренированных для охоты на самого Блэйда убийц...

Качество: HDRip
Формат: AVI
Видео кодек: XviD
Аудио кодек: MP3
Видео: 672x288 (2.33:1), 23.976 fps, XviD build 73 ~754 kbps avg, 0.16 bit/pixel
Аудио: 48 kHz, MPEG Layer 3, 2 ch, ~128.00 kbps avg
Раздача от:
D:Blade.II.2002.HDrip 745 [YTN] by dexter lex.avi
General
Complete name : D:Blade.II.2002.HDrip 745 [YTN] by dexter lex.avi
Format : AVI
Format/Info : Audio Video Interleave
File size : 745 MiB
Duration : 1h 56mn
Overall bit rate : 892 Kbps
Writing application : VirtualDubMod 1.5.10.3 | www.virtualdub-fr.org || (build 2550/release)
Writing library : VirtualDubMod build 2550/release
Video #0
ID : 0
Format : MPEG-4 Visual
Format profile : Advanced Simple@L5
Format settings, BVOP : 1
Format settings, QPel : No
Format settings, GMC : No warppoints
Format settings, Matrix : Custom
Codec ID : XVID
Codec ID/Hint : XviD
Duration : 1h 56mn
Bit rate : 754 Kbps
Width : 672 pixels
Height : 288 pixels
Display aspect ratio : 2.33:1
Frame rate : 23.976 fps
Color space : YUV
Chroma subsampling : 4:2:0
Bit depth : 8 bits
Scan type : Progressive
Compression mode : Lossy
Bits/(Pixel*Frame) : 0.163
Stream size : 631 MiB (85%)
Writing library : XviD 73
Audio #1
ID : 1
Format : MPEG Audio
Format version : Version 1
Format profile : Layer 3
Codec ID : 55
Codec ID/Hint : MP3
Duration : 1h 56mn
Bit rate mode : Constant
Bit rate : 128 Kbps
Channel(s) : 2 channels
Sampling rate : 48.0 KHz
Compression mode : Lossy
Stream size : 107 MiB (14%)
Alignment : Aligned on interleaves
Interleave, duration : 42 ms (1.00 video frame)
Interleave, preload duration : 504 ms
Writing library : LAME3.99r
Encoding settings : -m s -V 4 -q 2 -lowpass 17 -b 128
piratbit.org



Скачать Блэйд 2 через торрент http://i47.fastpic.ru/big/2013/0504/85/df8179255d2e381a9723efafc1388585.jpeg Скачать фильм Блэйд 2 через торрент бесплантно в хорошем качестве Описание: Трамвайчик едущий по старой улице, вполне может заставить думать, что перед нами Москва. Однако это не Москва, а Прага. Сюда ... 9.5 10 10
Info! Золотая раздача, скачанное не засчитывается.
Торрент: Зарегистрирован [2013-05-04 10:44] · скачан: 16 раз
Статус: √ проверено
Размер: 745 MB
Как cкачать? Как скачать Блэйд 2 через торрент | UTorrent

% Раздел Тема Автор DL S | L
Ultra HD (UHD: 2K, 4K, 8K) — видео сверхвысокой чёткости [ 58.44 GB ] Блэйд 2 / Blade II [2002 UHD BDRemux 2160p] DUB + AVO [Д. Пучков] sheker187 Скачать
1 | 0

28-11-2019 20:33  

Отключить всю рекламу на сайте

    Дорогой пользователь! Огромная просьба, поблагодарите релизера, оцените раздачу и оставьте свои комментарий, если Вы скачали Блэйд 2 через торрент бесплатно! Внесите свою лепту в развитие PiratBit!
    Комментировать посты могут только пользователи прошедшие не сложную регистрацию
    Показать сообщения:    

    Блэйд 2 через торрент
    Скачать бесплатно Блэйд 2
    Блэйд 2 скачать торрент
    Блэйд 2 смотреть онлайн
    Cкачать фильм Блэйд 2 бесплатно
    Блэйд 2 скачать торрент в хорошем качестве
    Блэйд 2 смотреть онлайн бесплатно в хорошем качестве


    Вы не можете начинать темы
    Вы не можете отвечать на сообщения
    Вы не можете редактировать свои сообщения
    Вы не можете удалять свои сообщения
    Вы не можете голосовать в опросах
    Вы не можете прикреплять файлы к сообщениям
    Вы можете скачивать файлы