Ссылка на приватное зеркало нашего сайта всего за 1$. Внимание количество ограничено!!!

2 сезон

iTunes

iTunes

1

iTunes

iTunes

iTunes

WEBRip

iTunes

30
pack

Вам бонус

ВАЖНО

!!Акция!!

Alien_RageХит недели

RePack

Horizon Zero Dawn

ИГРА 18+

pack

RePack

jed

!!Акция!!

Alien_Rage

RePack

fifa19

RePack

Assassins Creed: Odyssey

RePack

NEED FOR SPEED™ PAYBACK

4 сезон

9 сезон

Бесстыжие 9 сезон

Все сериалы

все сериалы на PB.wtf

RePack

FAR CRY 5
  

Эскадрилья «Лафайет» / Flyboys (Тони Билл) [2006 г., боевик, драма, мелодрама, приключения, военный, история, HDRip, Дубляж, лицензия] piratbit.org

Эскадрилья «Лафайет» через торрент piratbit.org

Размер: 1.46 GB | Добавлен: 7 лет 4 мес. назад | Торрент скачан:156 раз
Скачать  

06-05-2013 10:51 Эскадрилья «Лафайет» Скачать торрент  

Эскадрилья «Лафайет» / Flyboys
Год выпуска: 2006
Страна: Великобритания, США
Жанр: боевик, драма, мелодрама, приключения, военный, история,
Продолжительность: 02:18:41
Перевод: Дубляж, Лицензия

Режиссер: Тони Билл
Продюссер: Дэвид Браун, Джеймс Клэйтон, Дин Девлин
Сценарий: Фил Сирс, Дэвид С. Уорд, Блейк Т. Эванс

Бюджет: $60 000 000



В ролях:
Джеймс Франко
Мартин Хендерсон
Дэвид Эллисон
Дженнифер Декер
Тайлер Лабайн
Абдул Сэлис
Рут Брэдли
Жан Рено
Карен Форд
Тим Пиготт-Смит,

Описание: История легендарной эскадрильи «Лафайет» времен Первой мировой войны. Летный состав этой эскадрильи составляли добровольцы-иностранцы из стран, которые не находились в состоянии войны с Германией.

В центре фильма — история американских юнцов, выпускников летных курсов, попадающие на войну, которая сильно отличалась от «французского курорта», куда они ехали. Это фильм о любви, мужской дружбе, мужестве, отваге и о фантастических самолетах, покоривших небо…

Качество: HDRip
Формат: AVI
Видео кодек: XviD
Аудио кодек: AC3
Видео: 720x304, (2,35:1), 23,976 кадра/сек, 1053 Кбит/сек, 0.201 бит/сек
Аудио: 48,0 КГц, АС3, 6 каналов, 448 Кбит/сек
скриншот  скриншот  скриншот  скриншот  скриншот  скриншот  
Общее
Полное имя : D:загрузкиЭскадрилья «Лафайет» HDRip.avi
Формат : AVI
Формат/Информация : Audio Video Interleave
Размер файла : 1,46 Гбайт
Продолжительность : 2 ч. 18 м.
Общий поток : 1510 Кбит/сек
Программа кодирования : VirtualDubMod 1.5.10.2 (build 2540/release)
Библиотека кодирования : VirtualDubMod build 2540/release

Видео
Идентификатор : 0
Формат : MPEG-4 Visual
Профиль формата : Advanced Simple@L5
Параметр BVOP формата : 1
Параметр QPel формата : Нет
Параметр GMC формата : Без точки перехода
Параметр матрицы формата : Default (MPEG)
Идентификатор кодека : XVID
Идентификатор кодека/Подсказка : XviD
Продолжительность : 2 ч. 18 м.
Битрейт : 1053 Кбит/сек
Ширина : 720 пикселей
Высота : 304 пикселя
Соотношение сторон : 2,35:1
Частота кадров : 23,976 кадра/сек
Цветовое пространство : YUV
Субдискретизация насыщенности : 4:2:0
Битовая глубина : 8 бит
Тип развёртки : Прогрессивная
Метод сжатия : С потерями
Бит/(Пиксели*Кадры) : 0.201
Размер потока : 1,02 Гбайт (70%)
Библиотека кодирования : XviD 1.2.1 (UTC 2008-12-04)

Аудио
Идентификатор : 1
Формат : AC-3
Формат/Информация : Audio Coding 3
Расширение режима : CM (complete main)
Параметр Endianness формата : Big
Идентификатор кодека : 2000
Продолжительность : 2 ч. 18 м.
Вид битрейта : Постоянный
Битрейт : 448 Кбит/сек
Каналы : 6 каналов
Расположение каналов : Front: L C R, Side: L R, LFE
Частота : 48,0 КГц
Битовая глубина : 16 бит
Метод сжатия : С потерями
Размер потока : 444 Мбайт (30%)
Выравнивание : Разделение по промежуткам
Продолжительность промежутка : 42 мс. (1,00 видеокадр)
Время предзагрузки промежутка : 500 мс.

piratbit.org



Скачать Эскадрилья «Лафайет» через торрент http://pic.kartinco.top/images/2/he3bie2ha8.png Скачать фильм Эскадрилья «Лафайет» через торрент бесплантно в хорошем качестве Описание: История легендарной эскадрильи «Лафайет» времен Первой мировой войны. Летный состав этой эскадрильи составляли ... 9.9 10 12
Info! Золотая раздача, скачанное не засчитывается.
Торрент: Зарегистрирован [2013-05-06 10:51] · скачан: 156 раз
Статус: √ проверено
Размер: 1.46 GB
Как cкачать? Как скачать Эскадрилья «Лафайет» через торрент | qTorrent

% Раздел Тема Автор DL S | L
Фильмы [HD 720p, 1080p] (Хороший звук DUB, MVO) [ 15.34 GB ] Эскадрилья «Лафайет» / Flyboys [2006 военный история BDRip 1080p by msltel] DUB DVO msltel Скачать
1 | 0
Фильмы [HD 720p, 1080p] (Хороший звук DUB, MVO) [ 5.75 GB ] Эскадрилья «Лафайет» / Flyboys [2006 военный история BDRip 720p by msltel] DUB DVO msltel Скачать
1 | 0
Фильмы (Blu-ray, BD-Remux, HDDVD) [ 23.15 GB ] Эскадрилья "Лафайет" / Flyboys [2006 история военный BD-Remux 1080p Dub + MVO+ Original Eng ] Assasinca Скачать
1 | 0
Фильмы 2006-2008 [ 2.1 GB ] Эскадрилья «Лафайет» / Flyboys [2006 военный история BDRip-AVC] DUB stalonе Скачать
1 | 0
Фильмы 2006-2008 [ 2.18 GB ] Эскадрилья `Лафайет` / Flyboys [2006 военный история ... BDRip] MoNaZ Скачать
1 | 0

28-11-2019 20:33  

Отключить всю рекламу на сайте

    Дорогой пользователь! Огромная просьба, поблагодарите релизера, оцените раздачу и оставьте свои комментарий, если Вы скачали Эскадрилья «Лафайет» через торрент бесплатно! Внесите свою лепту в развитие PiratBit!
    Комментировать посты могут только пользователи прошедшие не сложную регистрацию
    Показать сообщения:    

    Эскадрилья «Лафайет» через торрент
    Скачать бесплатно Эскадрилья «Лафайет»
    Эскадрилья «Лафайет» скачать торрент
    Эскадрилья «Лафайет» смотреть онлайн
    Cкачать фильм Эскадрилья «Лафайет» бесплатно
    Эскадрилья «Лафайет» скачать торрент в хорошем качестве
    Эскадрилья «Лафайет» смотреть онлайн бесплатно в хорошем качестве


    Вы не можете начинать темы
    Вы не можете отвечать на сообщения
    Вы не можете редактировать свои сообщения
    Вы не можете удалять свои сообщения
    Вы не можете голосовать в опросах
    Вы не можете прикреплять файлы к сообщениям
    Вы можете скачивать файлы