Ссылка на приватное зеркало всего за 1$. Внимание количество ограничено!!!

iTunes

iTunes

iTunes

1

iTunes

iTunes

iTunes

iTunes

iTunes

30
pack

$ от Little Big

ВАЖНО

!!Акция!!

Alien_RageХит недели

RePack

Resident Evil 21

ИГРА 18+

pack

RePack

jed

!!Акция!!

Alien_Rage

RePack

fifa19

RePack

Assassins Creed: Odyssey

RePack

NEED FOR SPEED™ PAYBACK

4 сезон

9 сезон

Бесстыжие 9 сезон

Все сериалы

все сериалы на PB.wtf

RePack

FAR CRY 5
  

Шерлок Холмс / Sherlock Holmes (Гай Ричи) [2009 г., боевик, триллер, комедия, драма, приключения, криминал, детектив, HDRip-AVC] piratbit.org

Шерлок Холмс через торрент piratbit.org

Размер: 2.9 GB | Добавлен: 10 лет назад | Торрент скачан:181 раз
Скачать  

14-03-2010 21:10 Шерлок Холмс Скачать торрент  

Шерлок Холмс / Sherlock Holmes

Год выпуска: 2009
Страна: Германия, США
Жанр: боевик, триллер, комедия, драма, приключения, криминал, детектив
Продолжительность: 02:08:24
Перевод: Профессиональный (двухголосый) + Авторский (Гаврилов) + Оригинал

Режиссер: Гай Ричи
Продюссер: Брюс Берман, Стив Кларк-Холл, Сьюзэн Дауни, ...
Сценарий: Майкл Роберт Джонсон, Энтони Пекэм, Саймон Кинберг, ...

Бюджет: $90 000 000
Премьера в мире: 24 декабря 2009

PG-13
-Детям до 13 лет просмотр не желателен
Мировой рейтинг IMDB 7.60 (59 902)


В ролях: Роберт Дауни мл., Джуд Лоу, Рэйчел МакАдамс, Марк Стронг, Эдди Марсан, Роберт Мэйллет, Джеральдин Джеймс, Келли Райлли, Уильям Хьюстон, Хэнс Мэтис

Описание: Шерлок Холмс (Роберт Дауни мл.) и доктор Ватсон (Джуд Лоу) берут могущественного лорда Блэквуда (Марк Стронг) с поличным, чудом предотвращая очередное жертвенное убийство. Пока оккультиста-неумеху готовят к повешению, Ватсон съезжает с Бейкер-стрит к невесте, оставляя Холмса в одиночестве, что незамедлительно сказывается на душевном здоровье сыщика. Он впадает в депрессию. Блэквуд повешен, и кажется, что столь сильного визави больше не найти, однако через несколько дней по Лондону расходятся слухи о воскрешении лорда. В его могиле найден другой. Холмс и Ватсон снова в деле! Пока лучшие друзья рыщут по следу восставшего из ада, в город прибывает аферистка Ирэн Адлер (Рэйчел МакАдамс), когда-то влюбившая в себя Холмса. В этом расследовании у неё есть свои резоны…

Доп. информация: * Во время съемок боевой сцены Роберт Мэйллет (бывший рестлер) случайно нокаутировал Роберта Дауни-младшего.
* На ранней стадии производства картины планировалось, что роль Доктора Ватсона дадут Колину Фаррелу, однако позже режиссер отдал предпочтение кандидатуре Джуда Лоу.
* На роль доктора Ватсона было рассмотрено свыше 20-ти актёров, среди них - Джон Кьюсак, Джерард Батлер и Крис Пайн.
* События фильма предшествуют встрече профессора Мориарти и Шерлока Холмса, но при этом Ватсон уже помолвлен, что несколько противоречит событиям, описанным Артуром Конан Дойлем.
* Роберт принял участие в создании гардероба сыщика и сам купил в лондонском магазине «Lock & Co» шляпу и трубку.
* Съемки проходили в окрестностях Лондона и Манчестера, где сохранилось много живописных складских помещений XIX века. А интерьер дома 221б по Бейкер-стрит собрали из реквизита, который использовался для обустройства жилища Сириуса Блэка в фильме «Гарри Поттер и Орден Феникса».
General
Complete name : J:\Sherlock.Holmes.chopper887.mkv
Format : Matroska
File size : 2.73 GiB
Duration : 2h 8mn
Overall bit rate : 3 041 Kbps
Encoded date : UTC 2010-03-13 06:19:34
Writing application : mkvmerge v3.0.0 ('Hang up your Hang-Ups') built on Dec 12 2009 15:20:35
Writing library : libebml v0.7.9 + libmatroska v0.8.1
Video
ID : 1
Format : AVC
Format/Info : Advanced Video Codec
Format profile : High@L4.1
Format settings, CABAC : Yes
Format settings, ReFrames : 9 frames
Muxing mode : Container profile=Unknown@4.1
Codec ID : V_MPEG4/ISO/AVC
Duration : 2h 8mn
Bit rate : 2 021 Kbps
Nominal bit rate : 2 274 Kbps
Width : 1 280 pixels
Height : 720 pixels
Display aspect ratio : 16:9
Frame rate : 23.976 fps
Resolution : 8 bits
Colorimetry : 4:2:0
Scan type : Progressive
Bits/(Pixel*Frame) : 0.091
Stream size : 1.81 GiB (66%)
Writing library : x264 core 80 r1376M 3feaec2
Encoding settings : cabac=1 / ref=9 / deblock=1:-2:-1 / analyse=0x3:0x113 / me=umh / subme=9 / psy=1 / psy_rd=1.0:0.1 / mixed_ref=0 / me_range=24 / chroma_me=1 / trellis=2 / 8x8dct=1 / cqm=0 / deadzone=21,11 / fast_pskip=0 / chroma_qp_offset=-3 / threads=3 / sliced_threads=0 / nr=1 / decimate=0 / mbaff=0 / constrained_intra=0 / bframes=7 / b_pyramid=0 / b_adapt=2 / b_bias=0 / direct=1 / wpredb=0 / wpredp=0 / keyint=250 / keyint_min=25 / scenecut=40 / rc_lookahead=60 / rc=2pass / mbtree=1 / bitrate=2274 / ratetol=1.0 / qcomp=0.60 / qpmin=10 / qpmax=51 / qpstep=4 / cplxblur=20.0 / qblur=0.5 / ip_ratio=1.40 / aq=1:1.00
Language : English
Audio #1
ID : 2
Format : AC-3
Format/Info : Audio Coding 3
Codec ID : A_AC3
Duration : 2h 8mn
Bit rate mode : Constant
Bit rate : 384 Kbps
Channel(s) : 6 channels
Channel positions : Front: L C R, Surround: L R, LFE
Sampling rate : 48.0 KHz
Stream size : 353 MiB (13%)
Audio #2
ID : 3
Format : AC-3
Format/Info : Audio Coding 3
Codec ID : A_AC3
Duration : 2h 8mn
Bit rate mode : Constant
Bit rate : 192 Kbps
Channel(s) : 2 channels
Channel positions : L R
Sampling rate : 48.0 KHz
Stream size : 176 MiB (6%)
Audio #3
ID : 4
Format : AC-3
Format/Info : Audio Coding 3
Codec ID : A_AC3
Duration : 2h 8mn
Bit rate mode : Constant
Bit rate : 384 Kbps
Channel(s) : 6 channels
Channel positions : Front: L C R, Surround: L R, LFE
Sampling rate : 48.0 KHz
Stream size : 353 MiB (13%)
Text #1
ID : 5
Format : UTF-8
Codec ID : S_TEXT/UTF8
Codec ID/Info : UTF-8 Plain Text
Text #2
ID : 6
Format : UTF-8
Codec ID : S_TEXT/UTF8
Codec ID/Info : UTF-8 Plain Text
Качество: HDRip-AVC (Исх. Sherlock Holmes 2009 1080p BluRay x264-SECTOR7)
Формат: MKV
Видео кодек: H.264
Аудио кодек: AC3
Видео: 1280x720 , 23,976 кадр/сек, 2021 Кбит/сек
Аудио: AC3 384 kbps 48000 Hz 6 ch BBC Saint-Petersburg
Аудио (Русский): AC3 192 kbps 48000 Hz 2 ch авторский Гаврилов
Аудио (Английский): AC3 384 kbps 48000 Hz 6 ch
Субтитры: русские , английские

piratbit.org



Скачать Шерлок Холмс через торрент http://i038.radikal.ru/1003/c5/bf45b81f1a84.jpg Скачать фильм Шерлок Холмс через торрент бесплантно в хорошем качестве Описание: Шерлок Холмс (Роберт Дауни мл.) и доктор Ватсон (Джуд Лоу) берут могущественного лорда Блэквуда (Марк Стронг) с поличным, чудом ... 8.5 10 2
Info! Золотая раздача, скачанное не засчитывается.
Торрент: Зарегистрирован [2010-03-14 21:10] · скачан: 181 раз
Статус: √ проверено
Размер: 2.9 GB
Как cкачать? Как скачать Шерлок Холмс через торрент | qTorrent

% Раздел Тема Автор DL S | L
T Фильмы с авторской озвучкой [ 1.91 GB ] Шерлок Холмс / Sherlock Holmes [2009 WEB-DL 1080p] [AVO] killermax2013 Скачать
3 | 0
T Фильмы с авторской озвучкой [ 2.19 GB ] Шерлок Холмс: Игра теней / Sherlock Holmes: A Game of Shadows [2011 WEB-DL 1080p] [AVO] killermax2013 Скачать
6 | 0
# Фильмы (Blu-ray, BD-Remux, HDDVD) [ 21.47 GB ] Шерлок Холмс: Игра теней / Sherlock Holmes: A Game of Shadows [2011 BDRemux 1080p] DUB sheker187 Скачать
1 | 0
Ultra HD (UHD: 2K, 4K, 8K) — видео сверхвысокой чёткости [ 41.63 GB ] Шерлок Холмс: Игра теней / Sherlock Holmes: A Game of Shadows [2011 UHD WEBRip 2160p] DUB + 2xAVO sheker187 Скачать
1 | 0
Фильмы [HD 720p, 1080p] (Хороший звук DUB, MVO) [ 5.14 GB ] Частная жизнь Шерлока Холмса / The Private Life of Sherlock Holmes [1970 BDRip 720p by msltel] MVO 2 x DVO AVO msltel Скачать
1 | 0
Фильмы [HD 720p, 1080p] (Хороший звук DUB, MVO) [ 12.58 GB ] Частная жизнь Шерлока Холмса / The Private Life of Sherlock Holmes [1970 BDRip 1080p by msltel] MVO 2 x DVO AVO msltel Скачать
1 | 1
Сборники и Сиквелы (48-60 fps) [ 12.94 GB ] Шерлок Холмс: Дилогия / Sherlock Holmes: Dilogy [2009-2011 Германия BDRip 720p / 60 FPS] Tiberiumsun69 Скачать
1 | 0

28-11-2019 20:33  

Отключить всю рекламу на сайте

15-03-2010 09:51 Шерлок Холмс Скачать торрент  

Голоса дурацкие.piratbit.org



    Дорогой пользователь! Огромная просьба, поблагодарите релизера, оцените раздачу и оставьте свои комментарий, если Вы скачали Шерлок Холмс через торрент бесплатно! Внесите свою лепту в развитие PiratBit!
    Комментировать посты могут только пользователи прошедшие не сложную регистрацию
    Показать сообщения:    

    Шерлок Холмс через торрент
    Скачать бесплатно Шерлок Холмс
    Шерлок Холмс скачать торрент
    Шерлок Холмс смотреть онлайн
    Cкачать фильм Шерлок Холмс бесплатно
    Шерлок Холмс скачать торрент в хорошем качестве
    Шерлок Холмс смотреть онлайн бесплатно в хорошем качестве


    Вы не можете начинать темы
    Вы не можете отвечать на сообщения
    Вы не можете редактировать свои сообщения
    Вы не можете удалять свои сообщения
    Вы не можете голосовать в опросах
    Вы не можете прикреплять файлы к сообщениям
    Вы можете скачивать файлы