2 сезон

iTunes

MVO

1

2 сезон

iTunes

iTunes

1 сезон

RePack

30

Новинка

ВАЖНО

ИГРА 18+

pack

RePack

MK11
pack

Легкие деньги

RePack

jed

RePack

fifa19

RePack

RDR2

RePack

NEED FOR SPEED™ PAYBACK

4 сезон

9 сезон

Бесстыжие 9 сезон

Все сериалы

все сериалы на PB.wtf

RePack

FAR CRY 5

Anonymous, добрый вечер, мы не успеваем собрать деньги на оплату серверов за декабрь и январь, помогите нам пожалуйста в это трудное время. В качестве благодарности мы отключим Вам всю рекламу на сайте (укажите свой ник в строку Ваше имя)!

×
  
Magnet ссылка

Сомнамбула (Алексей Смирнов) [2012 г., Россия, триллер, драма, DVDRip] лицензия piratbit.org

Сомнамбула через торрент piratbit.org

Размер: 743 MB | Добавлен: 7 лет 8 мес. назад | Торрент скачан:324 раза
Скачать  

17-05-2013 10:42 Сомнамбула Скачать торрент  

Сомнамбула
Год выпуска: 2012
Страна: Россия / ЛёРев
Жанр: триллер, драма
Продолжительность: 01:17:59
Перевод: Не требуется
Cубтитры: Нет

Режиссер: Алексей Смирнов

В ролях: Сергей Апрельский, Андрей Дементьев, Мария Ясная, Александр Златопольский, Марина Гапченко, Георгий Колтушкин, Сергей Ковалёв, Николай Михайлов, Вера Сибирёва, Мария Ясная
Описание: Фильм основан на истории произошедшей в Интернате для детей сирот в Воронежской области, куда в 1993 году поступил 7-ми летний Андрей Яковлев. Внимание всего Интерната к мальчику приковали странные события, которые происходили с ним почти каждую ночь. Утром на теле мальчика появлялись ссадины, и царапины. Охрана патрулировала по корпусу каждый час, ночные дежурные не сводили с мальчика глаз — но так ничего и не выяснили. 3 августа 1993 года в спальнях интерната установили камеры видеонаблюдения. То, что запечатлели камеры шокировало сотрудников Интерната и привлекло внимание спецслужб. С виду обычный ребенок, обладающий множеством талантов и перспектив на будущее, поневоле создал огромный ажиотаж вокруг себя, а некоторые факты из его биографии были засекречены. В основу фильма легли секретные файлы, кадры камер видеонаблюдения датированные 1993 годом, а также свидетельства очевидцев.

Качество: DVDRip
Формат: AVI
Видео кодек: XviD
Аудио кодек: MP3
Видео: 688x384 (1.79:1), 25 fps, XviD build 73 ~1195 kbps avg, 0.18 bit/pixel
Аудио: 48 kHz, MPEG Layer 3, 2 ch, ~128.00 kbps avg
Раздача от:
D:Somnambula.2012.O.DVDRip.745[YTN] by dexter lex.avi
General
Complete name : D:Somnambula.2012.O.DVDRip.745[YTN] by dexter lex.avi
Format : AVI
Format/Info : Audio Video Interleave
File size : 743 MiB
Duration : 1h 17mn
Overall bit rate : 1 332 Kbps
Writing application : VirtualDubMod 1.5.10.3 | www.virtualdub-fr.org || (build 2550/release)
Writing library : VirtualDubMod build 2550/release
Video #0
ID : 0
Format : MPEG-4 Visual
Format profile : Advanced Simple@L5
Format settings, BVOP : 1
Format settings, QPel : No
Format settings, GMC : No warppoints
Format settings, Matrix : Custom
Codec ID : XVID
Codec ID/Hint : XviD
Duration : 1h 17mn
Bit rate : 1 195 Kbps
Width : 688 pixels
Height : 384 pixels
Display aspect ratio : 1:79:1
Frame rate : 25.000 fps
Color space : YUV
Chroma subsampling : 4:2:0
Bit depth : 8 bits
Scan type : Progressive
Compression mode : Lossy
Bits/(Pixel*Frame) : 0.181
Stream size : 666 MiB (90%)
Writing library : XviD 73
Audio #1
ID : 1
Format : MPEG Audio
Format version : Version 1
Format profile : Layer 3
Codec ID : 55
Codec ID/Hint : MP3
Duration : 1h 17mn
Bit rate mode : Constant
Bit rate : 128 Kbps
Channel(s) : 2 channels
Sampling rate : 48.0 KHz
Compression mode : Lossy
Stream size : 71.4 MiB (10%)
Alignment : Aligned on interleaves
Interleave, duration : 40 ms (1.00 video frame)
Interleave, preload duration : 504 ms
Writing library : LAME3.99r
Encoding settings : -m s -V 4 -q 2 -lowpass 17 -b 128
piratbit.org



Скачать Сомнамбула через торрент http://i48.fastpic.ru/big/2013/0517/6e/744527d52aa3f28a46c6a18890bc176e.jpg Скачать фильм Сомнамбула через торрент бесплантно в хорошем качестве Описание: Фильм основан на истории произошедшей в Интернате для детей сирот в Воронежской области, куда в 1993 году поступил 7-ми летний ... 9.9 10 17
Info! Золотая раздача, скачанное не засчитывается.
Торрент: Зарегистрирован [2013-05-17 10:42] · скачан: 324 раз
Статус: √ проверено
Размер: 743 MB
Как cкачать? Как скачать Сомнамбула через торрент | UTorrent

% Раздел Тема Автор DL S | L
Наши фильмы 2012 [ 1.46 GB ] Сомнамбула [2012 Россия DVDRip] лицензия dexter lex Скачать
1 | 0
Наши фильмы 2012 [ 1.37 GB ] Сомнамбула [2012 DVDRip] лицензия diletant Скачать
1 | 0

28-11-2019 20:33  

Отключить всю рекламу на сайте

    Дорогой пользователь! Огромная просьба, поблагодарите релизера, оцените раздачу и оставьте свои комментарий, если Вы скачали Сомнамбула через торрент бесплатно! Внесите свою лепту в развитие PiratBit!
    Комментировать посты могут только пользователи прошедшие не сложную регистрацию
    Показать сообщения:    

    Сомнамбула через торрент
    Скачать бесплатно Сомнамбула
    Сомнамбула скачать торрент
    Сомнамбула смотреть онлайн
    Cкачать фильм Сомнамбула бесплатно
    Сомнамбула скачать торрент в хорошем качестве
    Сомнамбула смотреть онлайн бесплатно в хорошем качестве


    Вы не можете начинать темы
    Вы не можете отвечать на сообщения
    Вы не можете редактировать свои сообщения
    Вы не можете удалять свои сообщения
    Вы не можете голосовать в опросах
    Вы не можете прикреплять файлы к сообщениям
    Вы можете скачивать файлы