Ссылка на приватное зеркало нашего сайта всего за 1$. Внимание количество ограничено!!!

2 сезон

iTunes

iTunes

1

iTunes

iTunes

iTunes

WEBRip

iTunes

30
pack

Вам бонус

ВАЖНО

!!Акция!!

Alien_RageХит недели

RePack

Horizon Zero Dawn

ИГРА 18+

pack

RePack

jed

!!Акция!!

Alien_Rage

RePack

fifa19

RePack

Assassins Creed: Odyssey

RePack

NEED FOR SPEED™ PAYBACK

4 сезон

9 сезон

Бесстыжие 9 сезон

Все сериалы

все сериалы на PB.wtf

RePack

FAR CRY 5
  

Пастух/Специальное задание / The Shepherd: Border Patrol (Айзек Флорентайн) [2008 г., боевик, триллер, криминал, DVDRip, MVO] piratbit.org

Пастух через торрент piratbit.org

Качают: 1 [ 0 KB/s ]
Размер: 701 MB | Добавлен: 7 лет 4 мес. назад | Торрент скачан:124 раза
Скачать  

19-05-2013 12:27 Пастух Скачать торрент  

Пастух/Специальное задание / The Shepherd: Border Patrol
Год выпуска: 2008
Страна: США
Жанр: боевик, триллер, криминал,
Продолжительность: 01:34:38
Перевод: Профессиональный многоголосый
Тип релиза: Пиратка
Субтитры: Нет

___________________________________________________
Режиссер: Айзек Флорентайн
Продюссер: Моше Дайамант, Гилберт Думонтет, Кэти Брэйтон
Сценарий: Джо Гэйтон, Кейд Картли
В ролях: Жан-Клод Ван Дамм, Стивен Лорд, Гари МакДональд, Натали Робб, Майлз Андерсон, Сава Драгунчев, Скотт Эдкинс,

Бюджет: $12 000 000
Премьера в мире: 4 марта 2008




Описание: Бывшие наемники спецподразделения американских войск разрабатывают план по ввозу на территорию США колоссальной партии наркотиков. Воодушевленные быстрой наживой, они пытаются осуществить переправку героина через мексиканскую границу. И единственный, кто встает у, них на пути — это патрульный государственной пограничной службы Джек.
Он бывший полицейский, работающий под прикрытием и имеющий лицензию на убийство стремиться пресечь деятельность картеля и утолить свою жажду… Жажду справедливости, которая наряду со спецподготовкой не оставит ни малейшего шанса на пощаду ни вероломным чиновникам, ни отъявленным отморозкам по обе стороны границы…

___________________________________________________
Качество: DVDRip
Формат: AVI
Видео кодек: XviD
Аудио кодек: MP3
Видео: 608x332 (1.83:1), 23.976 fps, XviD build 45 ~927 kbps avg, 0.19 bit/pixel
Аудио#1: 44.100 kHz, MPEG Layer 3, 2 ch, ~96.00 kbps avg
Format : AVI
Format/Info : Audio Video Interleave
File size : 701 MiB
Duration : 1h 34mn
Overall bit rate : 1 036 Kbps
Writing application : Lavf50.6.0

Video
ID : 0
Format : xvid
Codec ID : xvid
Duration : 1h 34mn
Bit rate : 928 Kbps
Width : 608 pixels
Height : 332 pixels
Display aspect ratio : 1.85:1
Frame rate : 23.976 fps
Bits/(Pixel*Frame) : 0.192
Stream size : 628 MiB (90%)

Audio
ID : 1
Format : MPEG Audio
Format version : Version 1
Format profile : Layer 3
Mode : Joint stereo
Mode extension : MS Stereo
Codec ID : 55
Codec ID/Hint : MP3
Duration : 1h 34mn
Bit rate mode : Constant
Bit rate : 96.0 Kbps
Channel(s) : 2 channels
Sampling rate : 44.1 KHz
Compression mode : Lossy
Stream size : 65.0 MiB (9%)
Alignment : Aligned on interleaves
Interleave, duration : 26 ms (0.63 video frame)
Interleave, preload duration : 26 ms
Writing library : LAME3.98 (alpha)
скриншот   скриншот   скриншот   скриншот  
ПРИЯТНОГО ПРОСМОТРА!!!Оформление by fiskerpiratbit.org



Скачать Пастух через торрент http://pic.kartinco.top/images/2/bkrjriedqh.jpg Скачать фильм Пастухчерез торрент бесплантно в хорошем качестве Описание: Бывшие наемники спецподразделения американских войск разрабатывают план по ввозу на территорию США колоссальной партии ... 9.9 10 13
Info! Золотая раздача, скачанное не засчитывается.
Торрент: Зарегистрирован [2013-05-19 12:27] · скачан: 124 раз
Статус: √ проверено
Размер: 701 MB
Как cкачать? Как скачать Пастух через торрент | qTorrent



Последний раз редактировалось: fisker from DREAM Paragon (2013-05-20 18:34), всего редактировалось 6 раз(а)

28-11-2019 20:33  

Отключить всю рекламу на сайте

19-05-2013 12:48 Пастух Скачать торрент  

fisker from DREAM Paragon писал(а):

• Перевод: Профессиональный многоголосый, Лицензия
• Тип релиза: Пиратка

? уточняем или лицензия или пират ка.
Замените постер без название стороннего ресурса.
Добавьте MediaIfo

Как получить информацию по видео файлу? piratbit.org



    Дорогой пользователь! Огромная просьба, поблагодарите релизера, оцените раздачу и оставьте свои комментарий, если Вы скачали Пастух через торрент бесплатно! Внесите свою лепту в развитие PiratBit!
    Комментировать посты могут только пользователи прошедшие не сложную регистрацию
    Показать сообщения:    

    Пастух через торрент
    Скачать бесплатно Пастух
    Пастух скачать торрент
    Пастух смотреть онлайн
    Cкачать фильм Пастух бесплатно
    Пастух скачать торрент в хорошем качестве
    Пастух смотреть онлайн бесплатно в хорошем качестве


    Вы не можете начинать темы
    Вы не можете отвечать на сообщения
    Вы не можете редактировать свои сообщения
    Вы не можете удалять свои сообщения
    Вы не можете голосовать в опросах
    Вы не можете прикреплять файлы к сообщениям
    Вы можете скачивать файлы