1 сезон

iTunes

iTunes

1

Line

MVO

iTunes

13

1 сезон

RePack

30

Deluxe

pack

Лицензия

ВАЖНО

ИГРА 18+

pack

RePack

MK11

RePack

jed

RePack

fifa19

RePack

RDR2

RePack

NEED FOR SPEED™ PAYBACK

4 сезон

9 сезон

Бесстыжие 9 сезон

Все сериалы

все сериалы на PB.wtf

RePack

FAR CRY 5

Anonymous, добрый день, мы катастрофически не успеваем собрать деньги на оплату серверов, помогите нам пожалуйста 5,10,15р., для нас важна любая помощь . В качестве благодарности мы отключим Вам всю рекламу на сайте (укажите свой ник в строку Ваше имя)!

×
  
Magnet ссылка

Кровавая жатва / Haute tension (Александр Ажа) [2003 г., ужасы, триллер, детективслова, HDRip, Профессиональный + Оригинал] piratbit.org

Кровавая жатва через торрент piratbit.org

Размер: 2.07 GB | Добавлен: 8 лет 2 мес. назад | Торрент скачан:60 раз
Скачать  

22-05-2013 17:02 Кровавая жатва Скачать торрент  

Кровавая жатва / Haute tension

Год выпуска: 2003
Страна: Франция
Производство: Alexandre Films, Europa Corp.
Жанр: ужасы, триллер, детектив
Продолжительность: 01:30:44
Перевод: Профессиональный |Двухголосый закадровый,R5| + |Одноголосый закадровый,Ю. Сербин| + Оригинал

Режиссер: Александр Ажа
Продюссер: Александр Аркади, Роберт Бенмусса, Андрей Бончя
Сценарий: Александр Ажа, Грегори Левассёр
Бюджет: €2 200 000
Премьера в мире: 18 июня 2003
Премьера (РФ): 20 ноября 2003



В ролях: Сесиль Де Франс, Майвенн Ле Беско, Филипп Наон, Франк Халфун, Андрей Финти, Оана Пелля, Марко Клаудиу Паску, Жан-Клод Де Горос, Богдан Уритеску, Габриэль Спайю,

Описание: Дом на отшибе. Две лучшие подруги и кровожадный убийца. Героиням фильма за одну ночь придется пережить самый страшный кошмар, какой только они могли себе вообразить. Они столкнутся со страхом неизвестного, со страхом темноты и животным страхом неотвратимости смерти.



Сэмпл / Трейлер

  • Качество: HDRip
  • Формат: AVI
  • Видео кодек: XviD
  • Аудио кодек: AC3
  • Видео: MPEG4, XviD, 720x304 (2.35:1), 23.976 fps, 2 161 Kbps (0.412 bit/pixel)
  • Аудио#1: AC-3, 48.0 KHz, 2 ch, 192 Kbps, CBR |Двухголосый закадровый,R5|
  • Аудио#2: AC-3, 48.0 KHz, 6 ch, 448 Kbps, CBR |Одноголосый закадровый,Ю. Сербин|
  • Аудио#3: AC-3, 48.0 KHz, 6 ch, 448 Kbps, CBR |English|
    Формат : AVI
    Формат/Информация : Audio Video Interleave
    Профиль формата : OpenDML
    Размер файла : 2,07 Гбайт
    Продолжительность : 1 ч. 30 м.
    Общий поток : 3264 Кбит/сек
    Название фильма : Haute tension (2003) - Release for PIRATBIT.NET
    Жанр : Horror, Thriller, Mystery
    Программа кодирования : VirtualDubModRus 1.5.10.2 (build 2542/release)
    Формат оригинала/Имя : Movie
    Примечание : Rip ot kep

    Видео
    Идентификатор : 0
    Формат : MPEG-4 Visual
    Профиль формата : Advanced Simple@L5
    Параметр BVOP формата : 1
    Параметр QPel формата : Нет
    Параметр GMC формата : Без точки перехода
    Параметр матрицы формата : Default (MPEG)
    Идентификатор кодека : XVID
    Идентификатор кодека/Подсказка : XviD
    Продолжительность : 1 ч. 30 м.
    Битрейт : 2161 Кбит/сек
    Ширина : 720 пикселей
    Высота : 304 пикселя
    Соотношение сторон : 2,35:1
    Частота кадров : 23,976 кадра/сек
    Цветовое пространство : YUV
    Субдискретизация насыщенности : 4:2:0
    Битовая глубина : 8 бит
    Тип развёртки : Прогрессивная
    Метод сжатия : С потерями
    Бит/(Пиксели*Кадры) : 0.412
    Размер потока : 1,37 Гбайт (66%)
    Библиотека кодирования : XviD 64

    Аудио #1
    Идентификатор : 1
    Формат : AC-3
    Формат/Информация : Audio Coding 3
    Расширение режима : CM (complete main)
    Параметр Endianness формата : Big
    Идентификатор кодека : 2000
    Продолжительность : 1 ч. 30 м.
    Вид битрейта : Постоянный
    Битрейт : 192 Кбит/сек
    Каналы : 2 канала
    Расположение каналов : Front: L R
    Частота : 48,0 КГц
    Битовая глубина : 16 бит
    Метод сжатия : С потерями
    Размер потока : 125 Мбайт (6%)
    Выравнивание : Соединение по промежуткам
    Продолжительность промежутка : 160 мс. (3,84 видеокадра)
    Время предзагрузки промежутка : 640 мс.

    Аудио #2
    Идентификатор : 2
    Формат : AC-3
    Формат/Информация : Audio Coding 3
    Расширение режима : CM (complete main)
    Параметр Endianness формата : Big
    Идентификатор кодека : 2000
    Продолжительность : 1 ч. 30 м.
    Вид битрейта : Постоянный
    Битрейт : 448 Кбит/сек
    Каналы : 6 каналов
    Расположение каналов : Front: L C R, Side: L R, LFE
    Частота : 48,0 КГц
    Битовая глубина : 16 бит
    Метод сжатия : С потерями
    Размер потока : 291 Мбайт (14%)
    Выравнивание : Разделение по промежуткам
    Продолжительность промежутка : 69 мс. (1,64 видеокадра)
    Время предзагрузки промежутка : 548 мс.

    Аудио #3
    Идентификатор : 3
    Формат : AC-3
    Формат/Информация : Audio Coding 3
    Расширение режима : CM (complete main)
    Параметр Endianness формата : Big
    Идентификатор кодека : 2000
    Продолжительность : 1 ч. 30 м.
    Вид битрейта : Постоянный
    Битрейт : 448 Кбит/сек
    Каналы : 6 каналов
    Расположение каналов : Front: L C R, Side: L R, LFE
    Частота : 48,0 КГц
    Битовая глубина : 16 бит
    Метод сжатия : С потерями
    Размер потока : 291 Мбайт (14%)
    Выравнивание : Разделение по промежуткам
    Продолжительность промежутка : 69 мс. (1,64 видеокадра)
    Время предзагрузки промежутка : 548 мс.
    скриншот   скриншот   скриншот   скриншот   скриншот   piratbit.org



  • Скачать Кровавая жатва через торрент http://i2.imageban.ru/out/2013/05/22/1568e8bb7fd0eb55c2ad1e435f1dce7c.png Скачать фильм Кровавая жатва через торрент бесплантно в хорошем качестве Описание: Дом на отшибе. Две лучшие подруги и кровожадный убийца. Героиням фильма за одну ночь придется пережить самый страшный кошмар, ... 10 10 7
    Info! Золотая раздача, скачанное не засчитывается.
    Торрент: Зарегистрирован [2013-05-22 17:02] · скачан: 60 раз
    Статус: √ проверено
    Размер: 2.07 GB
    Как cкачать? Как скачать Кровавая жатва через торрент | UTorrent

    28-11-2019 20:33  

    Отключить всю рекламу на сайте

    22-05-2013 21:44 Кровавая жатва Скачать торрент  

    Оооочень давно смотрел фильм. Самый финал выдавил пару кирпичей!piratbit.org



    30-05-2013 15:48 Кровавая жатва Скачать торрент  

    Сильный фильм.piratbit.org



      Дорогой пользователь! Огромная просьба, поблагодарите релизера, оцените раздачу и оставьте свои комментарий, если Вы скачали Кровавая жатва через торрент бесплатно! Внесите свою лепту в развитие PiratBit!
      Комментировать посты могут только пользователи прошедшие не сложную регистрацию
      Показать сообщения:    

      Кровавая жатва через торрент
      Скачать бесплатно Кровавая жатва
      Кровавая жатва скачать торрент
      Кровавая жатва смотреть онлайн
      Cкачать фильм Кровавая жатва бесплатно
      Кровавая жатва скачать торрент в хорошем качестве
      Кровавая жатва смотреть онлайн бесплатно в хорошем качестве


      Вы не можете начинать темы
      Вы не можете отвечать на сообщения
      Вы не можете редактировать свои сообщения
      Вы не можете удалять свои сообщения
      Вы не можете голосовать в опросах
      Вы не можете прикреплять файлы к сообщениям
      Вы можете скачивать файлы