2 сезон

iTunes

MVO

1

2 сезон

iTunes

iTunes

1 сезон

RePack

30

Новинка

ВАЖНО

ИГРА 18+

pack

RePack

MK11
pack

Легкие деньги

RePack

jed

RePack

fifa19

RePack

RDR2

RePack

NEED FOR SPEED™ PAYBACK

4 сезон

9 сезон

Бесстыжие 9 сезон

Все сериалы

все сериалы на PB.wtf

RePack

FAR CRY 5

Anonymous, добрый вечер, мы не успеваем собрать деньги на оплату серверов за декабрь и январь, помогите нам пожалуйста в это трудное время. В качестве благодарности мы отключим Вам всю рекламу на сайте (укажите свой ник в строку Ваше имя)!

×
  
Magnet ссылка

Разговор (Сергей Комаров) [2012 г., Россия, драма, DVDRip] лицензия piratbit.org

Разговор через торрент piratbit.org

Размер: 1.36 GB | Добавлен: 7 лет 7 мес. назад | Торрент скачан:481 раз
Скачать  

23-05-2013 18:18 Разговор Скачать торрент  

Разговор

Год выпуска: 2012
Страна: Россия
Жанр: Драма
Продолжительность: 01:14:06
Перевод: Оригинал [лицензия]

Режиссер: Сергей Комаров

В ролях: Гоша Куценко, Анна Канарис, Владимир Горюшин, Игорь Кистол, Александр Сирин, Георгий Тополага

Описание: Борис приходит в себя в тюрьме. Оказывается, что три дня назад он сбил человека. Но вспомнить аварию и обстоятельства, предшествующие ей, Борису не удается даже на допросе. Как все произошло? Кого он сбил? Головоломка начинает складываться, когда на свидание к Борису приходит жена. В разговоре с ней он узнает, что наказан за преступление, которое совершил не сейчас. А наказание это намного страшнее тюремного заключения.



Качество: DVDRip
Формат: AVI
Видео кодек: XviD
Аудио кодек: AC3
Видео: 720x304, 2168 kb/s, 25fps
Аудио: 48 kHz, AC3, 448 kb/s (6 ch)
Релиз группы:

General
Complete name : F:Razg0vor.2012.O.DVDRip.1400MB.avi
Format : AVI
Format/Info : Audio Video Interleave
File size : 1.36 GiB
Duration : 1h 14mn
Overall bit rate : 2 626 Kbps
Writing application : VirtualDubMod 1.5.10.2 (build 2540/release)
Writing library : VirtualDubMod build 2540/release
Video #0
ID : 0
Format : MPEG-4 Visual
Format profile : Advanced Simple@L5
Format settings, BVOP : 2
Format settings, QPel : No
Format settings, GMC : No warppoints
Format settings, Matrix : Default (MPEG)
Codec ID : XVID
Codec ID/Hint : XviD
Duration : 1h 14mn
Bit rate : 2 168 Kbps
Width : 720 pixels
Height : 304 pixels
Display aspect ratio : 2.35:1
Frame rate : 25.000 fps
Color space : YUV
Chroma subsampling : 4:2:0
Bit depth : 8 bits
Scan type : Progressive
Compression mode : Lossy
Bits/(Pixel*Frame) : 0.396
Stream size : 1.12 GiB (83%)
Writing library : XviD 1.2.1 (UTC 2008-12-04)
Audio #1
ID : 1
Format : AC-3
Format/Info : Audio Coding 3
Mode extension : CM (complete main)
Format settings, Endianness : Big
Codec ID : 2000
Duration : 1h 14mn
Bit rate mode : Constant
Bit rate : 448 Kbps
Channel(s) : 6 channels
Channel positions : Front: L C R, Side: L R, LFE
Sampling rate : 48.0 KHz
Bit depth : 16 bits
Compression mode : Lossy
Stream size : 237 MiB (17%)
Alignment : Split accross interleaves
Interleave, duration : 40 ms (1.00 video frame)
Interleave, preload duration : 500 ms




piratbit.org



Скачать Разговор через торрент http://pic.kartinco.top/images/2/qnfr7pkmlg.jpg Скачать фильм Разговор через торрент бесплантно в хорошем качестве Описание: Борис приходит в себя в тюрьме. Оказывается, что три дня назад он сбил человека. Но вспомнить аварию и обстоятельства, ... 9.6 10 11
Info! Золотая раздача, скачанное не засчитывается.
Торрент: Зарегистрирован [2013-05-23 18:18] · скачан: 481 раз
Статус: √ проверено
Размер: 1.36 GB
Как cкачать? Как скачать Разговор через торрент | UTorrent

% Раздел Тема Автор DL S | L
Наши фильмы (HD, WEB-DL 720p, 1080p) [ 4.36 GB ] Разговор [2012 BDRip 720p лицензия] Ke$h@ Скачать
1 | 0


Последний раз редактировалось: Twi7ter (2013-05-23 18:25), всего редактировалось 1 раз

28-11-2019 20:33  

Отключить всю рекламу на сайте

23-05-2013 18:21 Разговор Скачать торрент  

Twi7ter писал(а):

Сомнамбула (Сергей Комаров) [2012 г., Россия, драма, DVDRip] Лицензия

Twi7ter писал(а):

Разговор

?

Все скриншоты должны быть оформлены в виде миниатюр (превью - увеличение по клику).piratbit.org



23-05-2013 18:26 Разговор Скачать торрент  

Vetаl писал(а):

Twi7ter писал(а):

Сомнамбула (Сергей Комаров) [2012 г., Россия, драма, DVDRip] Лицензия

Twi7ter писал(а):

Разговор

?
испаравил!
Все скриншоты должны быть оформлены в виде миниатюр (превью - увеличение по клику).

piratbit.org



24-05-2013 14:58 Разговор Скачать торрент  

Полное говноpiratbit.org



    Дорогой пользователь! Огромная просьба, поблагодарите релизера, оцените раздачу и оставьте свои комментарий, если Вы скачали Разговор через торрент бесплатно! Внесите свою лепту в развитие PiratBit!
    Комментировать посты могут только пользователи прошедшие не сложную регистрацию
    Показать сообщения:    

    Разговор через торрент
    Скачать бесплатно Разговор
    Разговор скачать торрент
    Разговор смотреть онлайн
    Cкачать фильм Разговор бесплатно
    Разговор скачать торрент в хорошем качестве
    Разговор смотреть онлайн бесплатно в хорошем качестве


    Вы не можете начинать темы
    Вы не можете отвечать на сообщения
    Вы не можете редактировать свои сообщения
    Вы не можете удалять свои сообщения
    Вы не можете голосовать в опросах
    Вы не можете прикреплять файлы к сообщениям
    Вы можете скачивать файлы